<?xml version="1.0" standalone="no"?>
<!DOCTYPE svg PUBLIC "-//W3C//DTD SVG 1.1//EN" "http://www.w3.org/Graphics/SVG/1.1/DTD/svg11.dtd" >
<svg xmlns="http://www.w3.org/2000/svg">
<metadata>Generated by IcoMoon</metadata>
<defs>
<font id="mynacon" horiz-adv-x="1024">
<font-face units-per-em="1024" ascent="960" descent="-64" />
<missing-glyph horiz-adv-x="1024" />
<glyph unicode="&#x20;" horiz-adv-x="512" d="" />
<glyph unicode="&#xe900;" glyph-name="external-link" d="M966.961 505.039c-31.439 0-57.039-25.6-57.039-57.039v-292.828c0-57.937-47.158-105.095-105.095-105.095h-585.656c-57.937 0-105.095 47.158-105.095 105.095v585.656c0 57.937 47.158 105.095 105.095 105.095h292.828c31.439 0 57.039 25.6 57.039 57.039s-25.6 57.039-57.039 57.039h-292.828c-120.814 0-219.172-98.358-219.172-219.172v-585.656c0-120.814 98.358-219.172 219.172-219.172h585.656c120.814 0 219.172 98.358 219.172 219.172v292.828c0 31.439-25.6 57.039-57.039 57.039zM1006.035 924.968c-1.796 2.246-3.593 4.94-5.839 7.186 0 0 0 0 0 0-16.168 17.067-38.625 27.846-64.225 27.846h-242.526c-31.439 0-57.039-25.6-57.039-57.039s25.6-57.039 57.039-57.039h139.228l-469.333-465.291c-22.456-22.007-22.456-58.386 0-80.842 11.228-11.228 26.049-17.067 40.421-17.067s29.193 5.389 39.972 16.618l466.639 462.596v-139.228c0-31.439 25.6-57.039 57.039-57.039s57.039 25.6 57.039 57.039v248.814c0 20.211-6.737 38.175-17.965 52.996z" />
<glyph unicode="&#xe901;" glyph-name="warning" d="M550.818 764.744l323.008-559.035c21.495-36.992-5.965-82.628-47.718-82.628h-161.472c-22.387 0-40.533 18.15-40.533 40.533 0 22.387 18.146 40.533 40.533 40.533h116.463l-278.118 481.348-277.778-481.348h116.492c22.386 0 40.533-18.146 40.533-40.533 0-22.383-18.147-40.533-40.533-40.533h-161.471c-41.873 0-68.772 45.039-48.022 82.095l0.256 0.457 322.652 559.1c21.073 37.132 74.628 37.135 95.71 0.012zM504.154 118.131c24.247 0 43.9 19.657 43.9 43.904s-19.652 43.904-43.9 43.904c-24.247 0-43.904-19.657-43.904-43.904s19.657-43.904 43.904-43.904zM503.761 554.667h-1.583c-20.531 0-37.18-16.646-37.18-37.18v-234.411c0-20.535 16.649-37.18 37.18-37.18h1.583c20.531 0 37.18 16.644 37.18 37.18v234.411c0 20.534-16.649 37.18-37.18 37.18z" />
<glyph unicode="&#xe902;" glyph-name="round-cross" d="M512 106.667c-188.018 0-341.333 153.314-341.333 341.333s153.315 341.333 341.333 341.333 341.333-153.315 341.333-341.333c0.021-188.019-153.293-341.333-341.333-341.333zM512 711.25c-144.637 0-260.337-115.699-260.337-260.336 0-144.64 115.7-260.339 260.337-260.339s260.335 115.699 260.335 260.339c0.021 144.637-118.583 260.336-260.335 260.336zM566.963 450.906l104.137 104.137c17.353 14.468 17.353 40.497 0 57.85-14.468 17.353-40.495 17.353-57.847 0l-107.029-104.14-107.025 104.14c-17.353 14.468-40.497 14.468-57.85 0-14.468-17.353-14.468-40.497 0-57.85l104.139-104.137-104.139-104.141c-17.353-14.468-17.353-40.495 0-57.847 8.677-8.678 17.353-11.563 28.936-11.563 11.562 0 20.259 2.884 28.936 11.563l107.025 104.137 107.029-104.137c8.674-8.678 17.353-11.563 28.937-11.563 11.558 0 20.258 2.884 28.932 11.563 14.468 17.353 14.468 40.495 0 57.847l-104.179 104.141z" />
<glyph unicode="&#xe903;" glyph-name="round-check" d="M510.554 106.667c-187.22 0-339.887 153.314-339.887 341.333s152.666 341.333 339.887 341.333c37.453 0 74.889-5.791 109.466-17.353 20.173-8.677 31.689-31.821 23.049-52.059-8.64-20.259-31.689-31.821-51.84-23.145-25.92 8.677-51.84 14.468-80.653 14.468-144.027 0-259.236-115.7-259.236-260.335 0-144.64 115.209-260.339 259.236-260.339 144.021 0 259.234 115.699 259.234 260.339 0 23.142-5.769 49.173-8.64 69.427-5.769 23.146 8.64 43.384 31.684 49.176 23.049 5.791 43.2-8.677 48.969-31.821 5.764-26.029 11.511-54.97 11.511-86.786 0-190.929-152.661-344.239-342.78-344.239zM466.671 296.294c-14.716 0-29.436 8.149-35.307 19.034l-102.998 152.196c-11.761 19.034-5.891 40.764 14.717 51.648 20.608 10.863 44.13 5.44 55.913-13.594l70.627-106.001 308.971 375.076c14.716 16.305 41.195 19.034 58.846 8.152 17.651-13.594 20.608-38.050 8.828-54.353l-347.23-418.565c-5.892-8.154-20.587-13.594-32.367-13.594z" />
<glyph unicode="&#xe904;" glyph-name="filters" horiz-adv-x="1535" d="M481.28-64c-51.2 0-93.091 41.891-93.091 93.091v93.091h-295.098c-51.2 0-93.091 41.891-93.091 93.091s41.891 93.091 93.091 93.091h295.098v93.091c0 51.2 41.891 93.091 93.091 93.091s93.091-41.891 93.091-93.091v-372.364c0-51.2-41.891-93.091-93.091-93.091zM1489.455 122.182h-651.636c-51.2 0-93.091 41.891-93.091 93.091s41.891 93.091 93.091 93.091h651.636c51.2 0 93.091-41.891 93.091-93.091s-41.891-93.091-93.091-93.091zM1101.265 401.455c-51.2 0-93.091 41.891-93.091 93.091v372.364c0 51.2 41.891 93.091 93.091 93.091s93.091-41.891 93.091-93.091v-93.091h295.098c51.2 0 93.091-41.891 93.091-93.091s-41.891-93.091-93.091-93.091h-295.098v-93.091c0-51.2-41.891-93.091-93.091-93.091zM744.727 587.636h-651.636c-51.2 0-93.091 41.891-93.091 93.091s41.891 93.091 93.091 93.091h651.636c51.2 0 93.091-41.891 93.091-93.091s-41.891-93.091-93.091-93.091z" />
<glyph unicode="&#xe905;" glyph-name="line" d="M1.167 521.238l1022.581-2.664-0.915-143.809-1022.581 2.664 0.915 143.81z" />
<glyph unicode="&#xe906;" glyph-name="x" d="M609.417 526.409l381.212 433.591h-90.334l-331.002-376.486-264.371 376.486h-304.922l399.778-569.31-399.778-454.69h90.342l349.551 397.579 279.194-397.579h304.924l-414.595 590.409zM485.683 385.678l-362.795 507.782h138.752l638.694-893.932h-138.752l-275.9 386.15z" />
<glyph unicode="&#xe907;" glyph-name="add-product" horiz-adv-x="1231" d="M1088 960h-291.84l-148.48-253.44 145.92-253.44h291.84l145.92 253.44-143.36 253.44zM1036.8 686.080v-2.56h-61.44c0 0-2.56 0-2.56-2.56v-61.44l-2.56-2.56h-43.52c0 0-2.56 0-2.56 2.56v58.88c0 0 0 2.56-2.56 2.56h-61.44v51.2h61.44c0 0 2.56 0 2.56 2.56v64h48.64v-64c0 0 0-2.56 2.56-2.56h61.44v-2.56c0 0 0-43.52 0-43.52zM752.64 371.2l-51.2 92.16h-296.96c-15.36 0-28.16 12.8-28.16 25.6v209.92h186.88l5.12 10.24h-271.36c-12.8-2.56-20.48-5.12-30.72-12.8-35.84-17.92-71.68-35.84-104.96-61.44-28.16-17.92-48.64-40.96-56.32-76.8-5.12-20.48-12.8-43.52-20.48-64-56.32-145.92-84.48-299.52-84.48-455.68 0-33.28 15.36-64 40.96-87.040 10.24-10.24 23.040-15.36 38.4-15.36h12.8c5.12 0 10.24 0 15.36 2.56 25.6 7.68 46.080 12.8 71.68 23.040 15.36 5.12 30.72 17.92 35.84 35.84 17.92 40.96 35.84 76.8 56.32 117.76 0 2.56 2.56 5.12 2.56 10.24 10.24 35.84 43.52 61.44 79.36 61.44 56.32 2.56 115.2 5.12 168.96 5.12h74.24c56.32 0 115.2-2.56 168.96-5.12 35.84 0 71.68-25.6 79.36-61.44 0-2.56 2.56-5.12 2.56-10.24 17.92-40.96 35.84-76.8 56.32-117.76 5.12-15.36 20.48-30.72 35.84-35.84 20.48-5.12 46.080-15.36 71.68-20.48 5.12 0 10.24-2.56 15.36-2.56h10.24c15.36 0 28.16 5.12 40.96 15.36 28.16 20.48 43.52 51.2 40.96 87.040 0 110.080-12.8 225.28-43.52 332.8h-322.56v-2.56zM163.84 494.080c0 40.96 30.72 71.68 71.68 71.68s71.68-30.72 71.68-71.68-33.28-71.68-71.68-71.68-71.68 35.84-71.68 71.68zM913.92 158.72c-2.56 2.56-2.56 5.12-2.56 12.8-15.36 46.080-46.080 69.12-92.16 71.68h-61.44c-48.64 2.56-102.4 5.12-151.040 5.12h-92.16c-48.64 0-102.4-2.56-151.040-5.12l-56.32-2.56c-46.080-2.56-76.8-25.6-92.16-71.68 0-2.56-2.56-5.12-2.56-12.8l-15.36 5.12c2.56 2.56 2.56 5.12 2.56 10.24 12.8 48.64 56.32 79.36 104.96 79.36l58.88 2.56c48.64 2.56 102.4 5.12 151.040 5.12h92.16c48.64 0 102.4-2.56 151.040-5.12l58.88-2.56c48.64 0 92.16-33.28 104.96-79.36 0-2.56 2.56-5.12 2.56-10.24l-10.24-2.56z" />
<glyph unicode="&#xe908;" glyph-name="apple" horiz-adv-x="876" d="M631.014 960c-64-7.68-120.32-38.4-161.28-87.040-40.96-46.080-58.88-107.52-51.2-168.96 64 2.56 122.88 33.28 163.84 81.92 38.4 51.2 56.32 112.64 48.64 174.080zM844.8 609.818c-46.080 61.44-117.76 99.84-194.56 102.4-92.16 0-130.56-43.52-194.56-43.52-66.56 0-115.2 43.52-194.56 43.52-87.040-5.12-168.96-51.2-212.48-128-74.24-112.64-61.44-327.68 58.88-509.44 40.96-64 97.28-138.24 171.52-138.24 66.56 0 84.48 43.52 176.64 43.52s107.52-43.52 174.080-43.52c74.24 0 135.68 81.92 179.2 145.92 25.6 38.4 48.64 79.36 66.56 122.88-115.2 43.52-174.080 168.96-130.56 284.16 15.36 51.2 53.76 94.72 99.84 120.32z" />
<glyph unicode="&#xe909;" glyph-name="edit" d="M0 148.48v-212.48h212.48l629.76 629.76-212.48 212.48zM1006.080 811.52l-133.12 133.12c-23.040 23.040-58.88 23.040-79.36 0l-104.96-104.96 212.48-212.48 104.96 102.4c23.040 23.040 23.040 58.88 0 81.92z" />
<glyph unicode="&#xe90a;" glyph-name="email" horiz-adv-x="1364" d="M1246.72 960h-1126.4c-66.56 0-120.32-53.76-120.32-120.32v0-785.92c0-64 53.76-117.76 120.32-117.76v0h1126.4c66.56 0 120.32 53.76 120.32 120.32v783.36c-2.56 66.56-56.32 120.32-120.32 120.32zM683.52 481.28l-499.2 358.4h998.4l-499.2-358.4zM120.32 737.28l529.92-376.32c5.12-7.68 12.8-7.68 20.48-7.68h25.6c7.68 0 17.92 0 20.48 7.68l529.92 376.32v-606.72c-2.56-43.52-38.4-76.8-81.92-76.8h-965.12c-43.52 0-79.36 33.28-81.92 76.8l2.56 606.72z" />
<glyph unicode="&#xe90b;" glyph-name="facebook-round" horiz-adv-x="1250" d="M625.072 960c-282.045 0-510.73-228.685-510.73-510.73 0-256.635 190.571-470.074 439.583-505.648v332.864h-116.883v137.211h116.883v101.638c0 114.342 71.146 180.407 175.325 180.407l104.179-5.082v-121.965h-71.146c-58.442 0-66.065-25.409-66.065-66.065v-86.392h134.67l-17.787-139.752h-116.883v-332.864c249.012 33.032 442.124 246.471 442.124 505.648-2.541 282.045-231.226 510.73-513.27 510.73z" />
<glyph unicode="&#xe90c;" glyph-name="facebook-social" horiz-adv-x="532" d="M345.6-64v465.92h156.16l23.040 181.76h-179.2v115.2c0 56.32 12.8 92.16 89.6 92.16h97.28v161.28l-140.8 7.68c-138.24 0-235.52-87.040-235.52-240.64v-135.68h-156.16v-181.76h156.16v-465.92h189.44z" />
<glyph unicode="&#xe90d;" glyph-name="google" horiz-adv-x="1004" d="M1003.922 435.451c0 35.137-2.51 70.275-10.039 102.902h-481.882v-198.275h276.078c-12.549-62.745-47.686-120.471-102.902-155.608v-128h165.647c97.882 92.863 153.098 223.373 153.098 378.98v0zM512-64c138.039 0 253.49 45.176 338.824 122.98l-165.647 128c-45.176-30.118-105.412-47.686-173.176-47.686-133.020 0-245.961 90.353-288.627 210.824h-168.157v-133.020c85.333-173.176 263.529-281.098 456.784-281.098zM223.373 350.118c-22.588 62.745-22.588 133.020 0 195.765v133.020h-168.157c-72.784-145.569-72.784-316.235 0-459.294l168.157 130.51zM512 756.706c72.784 0 143.059-25.098 195.765-77.804l145.569 145.569c-90.353 90.353-213.333 138.039-341.333 135.529-193.255 0-371.451-107.922-456.784-281.098l170.667-133.020c40.157 120.471 153.098 210.824 286.118 210.824z" />
<glyph unicode="&#xe90e;" glyph-name="right" horiz-adv-x="584" d="M561.894 498.842l-440.32 440.32c-28.16 28.16-74.24 28.16-102.4 0s-28.16-74.24 0-102.4l391.68-389.12-389.12-389.12c-28.16-28.16-28.16-74.24 0-102.4s74.24-28.16 102.4 0l437.76 440.32c28.16 28.16 28.16 74.24 0 102.4 0 0 0 0 0 0z" />
<glyph unicode="&#xe90f;" glyph-name="star" horiz-adv-x="1073" d="M563.2 942.080l135.68-322.56 350.72-30.72c15.36-2.56 25.6-15.36 25.6-30.72 0-7.68-5.12-12.8-10.24-17.92l-266.24-230.4 79.36-343.040c2.56-15.36-5.12-30.72-20.48-33.28-7.68-2.56-15.36 0-20.48 2.56l-299.52 184.32-302.080-179.2c-12.8-7.68-30.72-2.56-38.4 10.24-2.56 5.12-5.12 12.8-2.56 20.48l79.36 343.040-266.24 230.4c-10.24 10.24-12.8 28.16-2.56 38.4 5.12 5.12 10.24 7.68 17.92 10.24l350.72 30.72 138.24 317.44c5.12 12.8 23.040 20.48 35.84 15.36 5.12-2.56 10.24-7.68 15.36-15.36z" />
<glyph unicode="&#xe910;" glyph-name="down" d="M563.2 176.64l440.32 440.32c28.16 28.16 28.16 74.24 0 102.4s-74.24 28.16-102.4 0l-389.12-391.68-389.12 389.12c-28.16 28.16-74.24 28.16-102.4 0s-28.16-74.24 0-102.4l440.32-437.76c28.16-28.16 74.24-28.16 102.4 0 0 0 0 0 0 0z" />
<glyph unicode="&#xe911;" glyph-name="instagram" horiz-adv-x="1032" d="M1026.56 660.48c0 43.52-7.68 84.48-23.040 125.44-12.8 33.28-35.84 64-61.44 89.6s-56.32 46.080-89.6 61.44c-38.4 15.36-81.92 23.040-125.44 23.040h-424.96c-43.52 0-84.48-7.68-125.44-23.040-33.28-12.8-64-33.28-89.6-61.44-25.6-25.6-46.080-56.32-61.44-89.6-12.8-40.96-20.48-81.92-23.040-125.44-2.56-53.76-2.56-74.24-2.56-212.48s0-158.72 2.56-212.48c0-43.52 7.68-84.48 23.040-125.44 12.8-33.28 35.84-64 61.44-89.6s56.32-46.080 89.6-61.44c40.96-15.36 81.92-23.040 125.44-23.040h424.96c43.52 0 84.48 7.68 125.44 23.040 69.12 28.16 122.88 84.48 151.040 151.040 15.36 40.96 23.040 81.92 23.040 125.44 2.56 53.76 2.56 74.24 2.56 212.48s2.56 158.72-2.56 212.48zM934.4 238.080c0-30.72-5.12-64-15.36-92.16-10.24-23.040-23.040-43.52-38.4-61.44-17.92-15.36-38.4-30.72-61.44-38.4-30.72-12.8-61.44-17.92-92.16-15.36h-422.4c-30.72 0-64 5.12-92.16 15.36-23.040 10.24-43.52 23.040-61.44 38.4-15.36 17.92-30.72 38.4-38.4 61.44-12.8 30.72-17.92 61.44-15.36 92.16-5.12 56.32-5.12 71.68-5.12 209.92s0 153.6 2.56 209.92c0 30.72 5.12 64 15.36 92.16 10.24 23.040 23.040 43.52 38.4 61.44 17.92 15.36 38.4 30.72 61.44 38.4 30.72 12.8 61.44 17.92 92.16 15.36h419.84c30.72 0 64-5.12 92.16-15.36 23.040-10.24 43.52-23.040 61.44-38.4 15.36-17.92 30.72-38.4 38.4-61.44 12.8-30.72 17.92-61.44 15.36-92.16 2.56-53.76 2.56-71.68 2.56-209.92s5.12-153.6 2.56-209.92zM514.56 711.68c-145.92 0-263.68-117.76-263.68-263.68s117.76-263.68 263.68-263.68 263.68 117.76 263.68 263.68-117.76 263.68-263.68 263.68v0zM514.56 276.48c-94.72 0-171.52 76.8-171.52 171.52s76.8 171.52 171.52 171.52 171.52-76.8 171.52-171.52v0c0-94.72-76.8-171.52-171.52-171.52zM788.48 785.92c-33.28-2.56-61.44-30.72-61.44-64 7.68-35.84 43.52-56.32 76.8-48.64 23.040 5.12 43.52 25.6 48.64 48.64 0 35.84-28.16 64-64 64z" />
<glyph unicode="&#xe912;" glyph-name="like" horiz-adv-x="1068" d="M110.080 514.56c-61.44 0-110.080-51.2-110.080-110.080v-355.84c0-61.44 51.2-112.64 110.080-112.64h133.12c25.6 0 48.64 7.68 66.56 23.040v555.52h-199.68zM1067.52 348.16c0 25.6-10.24 51.2-28.16 69.12 20.48 23.040 30.72 53.76 28.16 84.48-5.12 56.32-56.32 99.84-115.2 99.84h-276.48c12.8 40.96 35.84 117.76 35.84 179.2 0 97.28-81.92 179.2-133.12 179.2-46.080 0-79.36-25.6-81.92-28.16-5.12-5.12-7.68-10.24-7.68-17.92v-151.040l-128-279.040-5.12-2.56v-476.16c35.84-17.92 81.92-25.6 110.080-25.6h409.6c48.64 0 92.16 33.28 99.84 76.8 5.12 23.040 2.56 46.080-7.68 66.56 33.28 15.36 53.76 51.2 53.76 89.6 0 15.36-2.56 30.72-10.24 43.52 35.84 20.48 56.32 53.76 56.32 92.16z" />
<glyph unicode="&#xe913;" glyph-name="logout" horiz-adv-x="1027" d="M512 20.48h-384c-23.040 0-43.52 17.92-43.52 43.52v768c0 23.040 17.92 43.52 43.52 43.52h384c23.040 0 43.52 17.92 43.52 43.52s-20.48 40.96-43.52 40.96h-384c-71.68 0-128-56.32-128-128v-768c0-71.68 56.32-128 128-128h384c23.040 0 43.52 17.92 43.52 43.52 0 23.040-20.48 40.96-43.52 40.96zM1013.76 478.72l-258.56 256c-17.92 15.36-43.52 15.36-61.44 0-15.36-17.92-15.36-43.52 0-61.44l184.32-181.76h-494.080c-23.040 0-43.52-17.92-43.52-43.52 0-23.040 17.92-43.52 43.52-43.52h496.64l-184.32-181.76c-17.92-15.36-17.92-43.52 0-61.44 7.68-7.68 20.48-12.8 30.72-12.8s20.48 5.12 30.72 12.8l258.56 256c7.68 7.68 12.8 17.92 12.8 30.72-2.56 10.24-5.12 23.040-15.36 30.72z" />
<glyph unicode="&#xe914;" glyph-name="account" horiz-adv-x="893" d="M450.56 960c143.36 0 261.12-115.2 261.12-256 0-148.48-115.2-266.24-261.12-263.68-143.36 0-258.56 117.76-258.56 263.68-2.56 138.24 115.2 256 258.56 256zM535.040 2.56c-17.92 17.92-51.2 25.6-84.48 28.16-33.28 0-66.56-10.24-84.48-28.16-10.24-10.24-30.72-28.16-48.64-43.52 35.84-12.8 81.92-23.040 135.68-23.040 51.2 0 97.28 10.24 133.12 23.040-23.040 15.36-40.96 33.28-51.2 43.52zM888.32 245.76c-48.64 89.6-122.88 145.92-222.72 168.96-25.6 5.12-46.080 2.56-66.56-12.8-38.4-25.6-79.36-40.96-125.44-43.52-64-5.12-125.44 10.24-179.2 46.080-15.36 10.24-28.16 17.92-46.080 15.36-104.96-20.48-184.32-74.24-238.080-168.96-12.8-23.040-10.24-40.96 5.12-64 48.64-69.12 166.4-153.6 197.12-174.080 0 7.68 0 15.36 0 25.6 0 28.16 5.12 58.88 12.8 87.040s15.36 53.76 28.16 74.24c40.96 74.24 87.040 61.44 143.36 48.64 17.92-5.12 35.84-10.24 56.32-10.24v0c20.48 2.56 38.4 7.68 56.32 10.24 53.76 12.8 99.84 25.6 143.36-48.64 10.24-20.48 20.48-46.080 28.16-74.24s12.8-58.88 12.8-87.040c0-7.68 0-15.36 0-23.040 28.16 20.48 148.48 107.52 197.12 181.76 5.12 15.36 7.68 30.72-2.56 48.64zM314.88 28.16c0-49.485-40.115-89.6-89.6-89.6s-89.6 40.115-89.6 89.6c0 49.485 40.115 89.6 89.6 89.6s89.6-40.115 89.6-89.6zM765.44 28.16c0-49.485-40.115-89.6-89.6-89.6s-89.6 40.115-89.6 89.6c0 49.485 40.115 89.6 89.6 89.6s89.6-40.115 89.6-89.6z" />
<glyph unicode="&#xe915;" glyph-name="order" d="M747.52 488.96c-153.6 0-276.48-125.44-276.48-276.48s122.88-276.48 276.48-276.48 276.48 125.44 276.48 276.48-125.44 276.48-276.48 276.48zM867.84 266.24l-138.24-158.72c-5.12-7.68-15.36-10.24-23.040-10.24v0c-7.68 0-15.36 2.56-23.040 10.24l-74.24 74.24c-12.8 12.8-12.8 33.28 0 46.080s33.28 12.8 46.080 0l51.2-51.2 115.2 133.12c12.8 12.8 30.72 15.36 46.080 2.56 7.68-12.8 10.24-33.28 0-46.080zM394.24 960h-207.36c-25.6 0-51.2-15.36-64-38.4l-110.080-197.12h358.4l23.040 235.52zM839.68 724.48l-110.080 197.12c-12.8 23.040-38.4 38.4-64 38.4h-207.36l20.48-235.52h360.96zM852.48 560.64c-33.28 10.24-69.12 15.36-104.96 15.36-202.24 0-363.52-163.84-363.52-363.52 0-35.84 5.12-74.24 15.36-107.52h-330.24c-35.84 0-66.56 30.72-66.56 66.56l-2.56 488.96h852.48v-99.84z" />
<glyph unicode="&#xe916;" glyph-name="mynacon" horiz-adv-x="5022" d="M1399.83 344.511l-174.298 522.894h-185.191v-724.426h141.617v196.085l-16.34 337.702 185.191-533.787h98.043l185.191 533.787-16.34-337.702v-196.085h141.617v718.979h-185.191c0 0-174.298-517.447-174.298-517.447zM2058.894 349.957l-92.596 332.255h-147.064l179.745-533.787-16.34-38.128c-5.447-10.894-5.447-16.34-10.894-27.234l-16.34-16.34c-5.447-5.447-16.34-10.894-27.234-10.894s-21.787-5.447-32.681-5.447h-21.787v-108.936c5.447 0 10.894-5.447 16.34-5.447h49.021c27.234 0 49.021 5.447 65.362 10.894l49.021 32.681c16.34 10.894 21.787 27.234 27.234 43.574s10.894 32.681 16.34 43.574l201.532 615.489h-147.064c0 0-92.596-332.255-92.596-332.255zM2777.872 388.085l-272.34 473.872h-141.617v-718.979h141.617v473.872l272.34-473.872h141.617v718.979h-141.617c0 0 0-473.872 0-473.872zM3447.83 202.894c0 10.894-5.447 21.787-5.447 32.681v266.894c0 32.681-5.447 59.915-16.34 81.702s-21.787 43.574-43.574 59.915c-16.34 16.34-38.128 27.234-65.362 32.681-21.787 10.894-49.021 10.894-81.702 10.894s-59.915-5.447-87.149-10.894c-27.234-10.894-49.021-21.787-65.362-38.128s-32.681-32.681-43.574-54.468-16.34-43.574-16.34-65.362h136.17c0 21.787 5.447 38.128 21.787 49.021 10.894 10.894 32.681 16.34 54.468 16.34 27.234 0 43.574-5.447 54.468-21.787s16.34-32.681 16.34-59.915v-32.681h-59.915c-38.128 0-70.809-5.447-103.489-10.894-27.234-5.447-54.468-21.787-70.809-32.681-21.787-16.34-32.681-32.681-43.574-54.468s-16.34-49.021-16.34-76.255c0-21.787 5.447-43.574 10.894-65.362 10.894-21.787 21.787-38.128 38.128-49.021 16.34-16.34 32.681-27.234 54.468-32.681s43.574-10.894 70.809-10.894c32.681 0 54.468 5.447 76.255 16.34s38.128 27.234 54.468 43.574c5.447-16.34 5.447-32.681 16.34-49.021h136.17v10.894c-5.447 5.447-5.447 16.34-10.894 21.787-5.447 0-10.894 10.894-10.894 21.787zM3306.213 295.489c-5.447-5.447-5.447-10.894-16.34-21.787-5.447-5.447-10.894-10.894-21.787-16.34-5.447-5.447-16.34-10.894-27.234-10.894-10.894-5.447-21.787-5.447-32.681-5.447-21.787 0-38.128 5.447-49.021 16.34s-16.34 27.234-16.34 43.574c0 10.894 0 21.787 5.447 32.681s10.894 16.34 16.34 27.234 21.787 10.894 32.681 16.34c10.894 5.447 27.234 5.447 49.021 5.447h54.468v-87.149h5.447zM3665.702 475.234c0 16.34 5.447 32.681 16.34 49.021 5.447 16.34 16.34 27.234 27.234 32.681 10.894 10.894 27.234 10.894 49.021 10.894 16.34 0 27.234 0 38.128-5.447s21.787-10.894 27.234-21.787c5.447-10.894 10.894-16.34 16.34-27.234s5.447-21.787 5.447-38.128h125.277c0 32.681-5.447 59.915-16.34 87.149s-27.234 49.021-43.574 65.362-38.128 32.681-65.362 43.574c-27.234 10.894-54.468 16.34-87.149 16.34-38.128 0-70.809-5.447-103.489-21.787-27.234-16.34-54.468-32.681-70.809-59.915s-32.681-49.021-43.574-81.702c-10.894-32.681-16.34-70.809-16.34-103.489v-16.34c0-38.128 5.447-70.809 16.34-103.489s21.787-59.915 43.574-87.149c21.787-21.787 43.574-43.574 70.809-59.915s65.362-21.787 103.489-21.787c27.234 0 54.468 5.447 81.702 16.34s49.021 21.787 65.362 38.128c16.34 16.34 32.681 38.128 43.574 59.915s16.34 49.021 16.34 76.255h-125.277c0-10.894 0-21.787-5.447-32.681s-10.894-16.34-16.34-27.234c-5.447-5.447-16.34-10.894-27.234-16.34-10.894 5.447-21.787 5.447-32.681 5.447-21.787 0-38.128 5.447-49.021 10.894-10.894 10.894-21.787 21.787-27.234 32.681l-16.34 49.021c0 16.34-5.447 38.128-5.447 59.915v16.34c0 16.34 0 38.128 5.447 54.468zM4444.596 611.404c-21.787 21.787-43.574 43.574-76.255 54.468-32.681 16.34-65.362 21.787-103.489 21.787s-70.809-5.447-103.489-21.787c-27.234-16.34-54.468-32.681-76.255-54.468s-38.128-54.468-49.021-87.149c-10.894-32.681-16.34-70.809-16.34-108.936v-10.894c0-38.128 5.447-76.255 16.34-108.936s27.234-59.915 49.021-87.149c21.787-21.787 43.574-43.574 76.255-54.468 27.234-16.34 65.362-21.787 103.489-21.787s70.809 5.447 103.489 21.787c27.234 16.34 54.468 32.681 76.255 54.468s38.128 54.468 49.021 87.149c10.894 32.681 16.34 70.809 16.34 108.936v10.894c0 38.128-5.447 76.255-16.34 108.936-16.34 32.681-27.234 65.362-49.021 87.149zM4368.34 404.426c0-21.787 0-43.574-5.447-59.915s-10.894-38.128-16.34-49.021c-10.894-16.34-21.787-27.234-32.681-32.681s-27.234-10.894-49.021-10.894-38.128 5.447-49.021 10.894l-32.681 32.681c-10.894 16.34-16.34 32.681-16.34 49.021-5.447 16.34-5.447 38.128-5.447 59.915v10.894c0 21.787 0 43.574 5.447 59.915s10.894 38.128 16.34 49.021c10.894 16.34 16.34 27.234 32.681 32.681 10.894 10.894 27.234 10.894 49.021 10.894 16.34 0 32.681-5.447 49.021-10.894l32.681-32.681c10.894-16.34 16.34-32.681 16.34-49.021 5.447-16.34 5.447-38.128 5.447-59.915v-10.894zM5011.064 578.723c-5.447 27.234-16.34 49.021-32.681 65.362s-32.681 27.234-49.021 32.681c-21.787 10.894-43.574 10.894-65.362 10.894-32.681 0-59.915-5.447-81.702-16.34-27.234-10.894-43.574-32.681-65.362-54.468l-5.447 59.915h-125.277v-533.787h136.17v381.277c10.894 16.34 21.787 27.234 32.681 38.128 16.34 10.894 32.681 16.34 49.021 16.34 10.894 0 27.234 0 32.681-5.447 10.894-5.447 16.34-5.447 27.234-16.34 5.447-5.447 10.894-16.34 16.34-27.234s5.447-27.234 5.447-43.574v-343.149h136.17v343.149c0 38.128 0 70.809-10.894 92.596zM457.532 960c-256 0-457.532-206.979-457.532-457.532s201.532-457.532 457.532-457.532c250.553 0 457.532 206.979 457.532 457.532-5.447 250.553-206.979 457.532-457.532 457.532zM718.979 807.489c-38.128-16.34-54.468-27.234-76.255-54.468-49.021-21.787-141.617-76.255-174.298-92.596 27.234 38.128 103.489 136.17 250.553 147.064zM675.404 333.617c-5.447-5.447-5.447-5.447 0 0 92.596 108.936 114.383 234.213 87.149 337.702-16.34 65.362-54.468 59.915-76.255 49.021-43.574-21.787-70.809-32.681-119.83-59.915 49.021-114.383 27.234-261.447-70.809-354.043-5.447-10.894-5.447-16.34 0-21.787 10.894-10.894 32.681-27.234 65.362-27.234 16.34 0 32.681 5.447 32.681 5.447 223.319 98.043 277.787 310.468 239.66 457.532 10.894-43.574 16.34-87.149 16.34-119.83 0-217.872-179.745-408.511-397.617-408.511-168.851 0-305.021 147.064-305.021 315.915 0 76.255 27.234 147.064 70.809 201.532 27.234 103.489 108.936 179.745 212.426 206.979-16.34-10.894-38.128-21.787-54.468-32.681-54.468-65.362-70.809-168.851-70.809-168.851s-16.34 70.809 10.894 125.277c-119.83-141.617-65.362-315.915 10.894-386.723-27.234 70.809-32.681 147.064-27.234 196.085 49.021 10.894 70.809-21.787 76.255-32.681-16.34-70.809 0-163.404 59.915-234.213-27.234 87.149-16.34 174.298 5.447 217.872 32.681 10.894 76.255 38.128 103.489 54.468 43.574 21.787 108.936 65.362 163.404 87.149 32.681 16.34 76.255 21.787 87.149-70.809 10.894-108.936-16.34-239.66-119.83-337.702z" />
<glyph unicode="&#xe917;" glyph-name="nacon-menu" horiz-adv-x="1035" d="M517.804-64c-285.65 0-517.804 229.63-517.804 511.748 0 282.622 232.154 512.252 517.804 512.252s517.804-229.63 517.804-512.252c-0.505-282.117-232.658-511.748-517.804-511.748zM530.421 620.349c41.889 19.683 146.358 80.244 200.359 103.965 20.692 28.262 41.384 44.917 83.777 61.067-165.536-7.57-253.35-117.086-284.136-165.031zM950.316 687.472c44.412-164.022-21.197-400.213-274.042-512.757-3.533-1.514-20.187-9.589-39.365-7.066-32.804 4.037-60.057 18.169-72.674 33.309-7.57 8.58-7.57 11.608 3.533 22.711 107.497 105.983 133.741 267.482 79.235 397.185 56.524 30.281 86.301 46.935 135.255 69.141 20.692 9.084 65.609 20.187 85.291-55.515 25.234-117.591 2.019-260.416-102.955-381.54 0 0 0 0 0.505 0.505-1.514-1.514-3.028-3.533-4.542-5.047 2.019 2.019 3.533 4.037 5.552 6.056 117.591 114.058 151.405 259.911 132.731 381.035-12.617 102.955-57.534 94.88-96.394 78.73-58.543-24.729-136.264-71.16-185.218-98.413-29.776-16.15-80.244-43.907-117.086-55.010-19.683-48.954-37.346-142.825-3.533-242.752-69.141 77.216-84.787 180.676-68.637 260.921-8.58 10.094-32.804 49.459-88.319 34.823-3.533-57.029 1.514-140.302 32.804-224.079-89.329 83.273-150.9 276.566-10.598 434.027-31.29-55.515-12.617-138.283-12.617-138.283s19.178 114.563 75.702 189.256c20.692 12.112 43.403 22.206 67.123 29.776-117.086-27.253-209.948-117.086-240.733-232.154-51.982-60.562-83.777-138.283-83.777-224.079 0-190.265 156.451-354.287 348.735-354.792 249.818 0.505 454.719 209.443 454.719 457.242 0.505 40.879-6.056 89.833-20.692 136.769z" />
<glyph unicode="&#xe918;" glyph-name="arrow-right" horiz-adv-x="2115" d="M2088.96 506.88v0l-430.080 430.080c-33.28 33.28-84.48 33.28-117.76 0s-33.28-84.48 0-117.76l289.28-289.28h-1748.48c-46.080 0-81.92-35.84-81.92-81.92s35.84-81.92 81.92-81.92h1748.48l-289.28-289.28c-33.28-33.28-33.28-84.48 0-117.76s84.48-33.28 117.76 0l432.64 430.080c30.72 33.28 30.72 84.48-2.56 117.76z" />
<glyph unicode="&#xe919;" glyph-name="phone" horiz-adv-x="1250" d="M1095.146 162.144l-198.194 198.194c-22.868 22.868-63.524 22.868-86.392 0l-50.819-50.819c-15.246-15.246-20.328-38.114-15.246-60.983l-20.328-20.328c-12.705-12.705-99.097 7.623-205.816 111.801s-127.047 190.571-111.801 205.816v0l20.328 20.328c20.328-5.082 43.196 0 60.983 15.246l50.819 50.819c22.868 22.868 22.868 63.524 0 86.392l-198.194 198.194c-22.868 22.868-63.524 22.868-86.392 0l-50.819-50.819c-17.787-15.246-25.409-38.114-17.787-60.983 0 0-15.246-17.787-17.787-17.787-55.901-60.983-66.065-157.538-30.491-271.881 45.737-127.047 119.424-243.931 218.521-335.404 94.015-96.556 208.357-172.784 335.404-215.98 40.655-12.705 83.851-20.328 127.047-20.328 55.901-2.541 111.801 17.787 152.457 55.901l10.164 10.164c20.328-5.082 43.196 0 60.983 15.246 76.228 73.687 76.228 111.801 53.36 137.211zM929.985 40.179v0c-43.196-43.196-121.965-50.819-218.521-20.328-119.424 43.196-226.144 111.801-312.536 203.275-91.474 86.392-160.079 193.112-203.275 312.536-30.491 94.015-22.868 172.784 20.328 215.98v0l7.623 5.082 154.998-154.998-15.246-15.246c-58.442-58.442 12.705-190.571 111.801-292.208 73.687-73.687 167.702-132.129 233.767-132.129 20.328 0 40.655 7.623 55.901 22.868v0l15.246 15.246 154.998-154.998-5.082-5.082zM889.33 710.988c-58.442 58.442-134.67 88.933-215.98 88.933-17.787-2.541-30.491-15.246-27.95-33.032 0-15.246 12.705-27.95 27.95-27.95 134.67 0 246.471-109.261 246.471-246.471v0c-2.541-17.787 10.164-30.491 27.95-33.032s30.491 10.164 33.032 27.95c0 2.541 0 2.541 0 5.082-2.541 83.851-35.573 162.62-91.474 218.521zM998.591 820.248c-86.392 86.392-203.275 134.67-325.241 134.67-17.787-2.541-30.491-15.246-27.95-33.032 0-15.246 12.705-27.95 27.95-27.95 221.062 0 401.469-180.407 401.469-401.469 0 0 0 0 0 0 2.541-17.787 15.246-30.491 33.032-27.95 15.246 0 27.95 12.705 27.95 27.95-2.541 124.506-50.819 241.39-137.211 327.782v0zM780.069 601.727c-27.95 27.95-66.065 45.737-106.72 45.737v0c-17.787 2.541-30.491-10.164-33.032-27.95s10.164-30.491 27.95-33.032c2.541 0 2.541 0 5.082 0v0c25.409 0 48.278-10.164 63.524-27.95 17.787-17.787 27.95-40.655 27.95-63.524 0-17.787 12.705-30.491 30.491-30.491v0c17.787 0 30.491 12.705 30.491 30.491-2.541 40.655-17.787 78.769-45.737 106.72z" />
<glyph unicode="&#xe91a;" glyph-name="playstation" horiz-adv-x="5056" d="M5034.394 316.877c-12.8 12.8-30.72 20.48-51.2 20.48-40.96 0-71.68-33.28-71.68-71.68 0 0 0 0 0 0 0-40.96 33.28-71.68 71.68-71.68 17.92 0 38.4 7.68 51.2 20.48 28.16 28.16 28.16 74.24 0 102.4v0zM4983.194 204.237c-33.28 0-61.44 28.16-61.44 61.44s28.16 61.44 61.44 61.44c33.28 0 61.44-28.16 61.44-61.44 0 0 0 0 0 0 0-33.28-28.16-61.44-61.44-61.44v0zM5016.474 234.957c0 2.56 0 5.12 0 5.12v10.24c0 2.56 0 7.68-2.56 10.24s-2.56 2.56-5.12 5.12c5.12 2.56 10.24 10.24 10.24 17.92s-5.12 15.36-12.8 20.48c-5.12 2.56-10.24 2.56-15.36 2.56h-38.4v-79.36h12.8v33.28h23.040c2.56 0 5.12 0 7.68-2.56s5.12-5.12 5.12-7.68v-12.8c0-2.56 0-5.12 0-7.68 0 0 0-2.56 0-2.56v0h15.36v5.12c2.56 0 2.56 0 0 2.56zM5001.114 273.357c-2.56-2.56-7.68-2.56-10.24-2.56h-23.040v23.040h23.040c2.56 0 5.12 0 7.68-2.56s5.12-5.12 5.12-10.24c0 0 0-5.12-2.56-7.68v0zM1714.074 695.757h-215.040c0 0-2.56 0-2.56-2.56v-501.76c0 0 0-2.56 2.56-2.56h87.040c0 0 2.56 0 2.56 2.56v450.56c0 0 0 0 0 0h99.84c35.84 0 56.32-35.84 56.32-102.4s-20.48-102.4-56.32-102.4h-58.88c0 0-2.56 0-2.56-2.56v-51.2c0 0 0-2.56 2.56-2.56h87.040c30.72 0 61.44 15.36 81.92 38.4 28.16 33.28 40.96 76.8 38.4 120.32-2.56 94.72-48.64 156.16-122.88 156.16zM1890.714 698.317h87.040c0 0 2.56 0 2.56-2.56 0 0 0 0 0 0v-501.76c0 0 0-2.56-2.56-2.56h-87.040c0 0-2.56 0-2.56 2.56 0 0 0 0 0 0l2.56 504.32c-2.56-2.56-2.56 0 0 0zM2200.474 575.437c-138.24 0-156.16-102.4-156.16-192v-76.8c-5.12-56.32 35.84-107.52 92.16-115.2 2.56 0 5.12 0 5.12 0h84.48c0 0 2.56 0 2.56 2.56v51.2c0 0 0 2.56-2.56 2.56 0 0 0 0 0 0h-61.44c-12.8 0-33.28 5.12-33.28 53.76v84.48c-2.56 38.4 2.56 76.8 17.92 110.080 10.24 17.92 30.72 28.16 48.64 25.6h66.56c0 0 0 0 0 0s0 0 0 0v-327.68c0 0 0-2.56 2.56-2.56h87.040c0 0 2.56 0 2.56 2.56 0 0 0 0 0 0v381.44c0 0 0 2.56-2.56 2.56l-153.6-2.56zM2981.274 485.837l-43.52 2.56c-33.28 2.56-56.32 20.48-56.32 74.24 0 61.44 28.16 79.36 64 79.36h117.76c0 0 2.56 0 2.56 2.56v51.2c0 0 0 2.56-2.56 2.56h-130.56c-71.68 5.12-133.12-48.64-138.24-117.76 0-7.68 0-15.36 0-23.040v-5.12c-5.12-69.12 46.080-128 115.2-133.12 0 0 0 0 0 0l43.52-2.56c33.28-2.56 53.76-30.72 53.76-76.8v-12.8c0-28.16-7.68-76.8-66.56-76.8h-122.88c0 0-2.56 0-2.56-2.56 0 0 0 0 0 0v-51.2c0 0 0-2.56 2.56-2.56h153.6c46.080 0 125.44 17.92 125.44 148.48 2.56 38.4-10.24 76.8-33.28 110.080-20.48 20.48-48.64 33.28-81.92 33.28zM3692.954 575.437h-156.16c-138.24 0-156.16-102.4-156.16-192v-76.8c-5.12-56.32 35.84-107.52 92.16-115.2 2.56 0 5.12 0 5.12 0h84.48c0 0 2.56 0 2.56 2.56v51.2c0 0 0 2.56-2.56 2.56 0 0 0 0 0 0h-61.44c-15.36 0-33.28 5.12-33.28 53.76v84.48c-2.56 38.4 2.56 76.8 15.36 110.080 10.24 17.92 30.72 28.16 51.2 25.6h66.56c0 0 0 0 0 0v-327.68c0 0 0-2.56 2.56-2.56h87.040c0 0 2.56 0 2.56 2.56 0 0 0 0 0 0v381.44c0 0 0 0 0 0zM3250.074 575.437c0 0 0 2.56 0 0 0 2.56 0 2.56 0 0v64c0 0 0 2.56-2.56 2.56 0 0 0 0 0 0h-87.040c0 0-2.56 0-2.56-2.56 0 0 0 0 0 0v-332.8c-5.12-56.32 35.84-107.52 92.16-115.2 2.56 0 5.12 0 5.12 0h61.44c0 0 2.56 0 2.56 2.56 0 0 0 0 0 0v51.2c0 0 0 2.56-2.56 2.56 0 0 0 0 0 0h-38.4c-10.24 0-33.28 0-33.28 48.64v222.72c0 0 0 0 0 0 28.16 0 94.72 0 94.72 0s2.56 0 2.56 2.56v51.2c0 0 0 2.56-2.56 2.56h-89.6zM3856.794 575.437c0 0 0 2.56 0 0 0 2.56 0 2.56 0 0v64c0 0 0 2.56-2.56 2.56 0 0 0 0 0 0h-87.040c0 0-2.56 0-2.56-2.56 0 0 0 0 0 0v-332.8c-5.12-56.32 35.84-107.52 92.16-115.2 2.56 0 5.12 0 5.12 0h61.44c0 0 2.56 0 2.56 2.56 0 0 0 0 0 0v51.2c0 0 0 2.56-2.56 2.56 0 0 0 0 0 0h-38.4c-10.24 0-33.28 0-33.28 48.64v222.72c0 0 0 0 0 0 28.16 0 94.72 0 94.72 0s2.56 0 2.56 2.56v51.2c0 0 0 2.56-2.56 2.56h-89.6zM4007.834 575.437h87.040c0 0 2.56 0 2.56-2.56 0 0 0 0 0 0v-381.44c0 0 0-2.56-2.56-2.56 0 0 0 0 0 0h-87.040c0 0-2.56 0-2.56 2.56 0 0 0 0 0 0l2.56 384c0 0 0 0 0 0s0 0 0 0zM4007.834 698.317h87.040c0 0 2.56 0 2.56-2.56 0 0 0 0 0 0v-71.68c0 0 0-2.56-2.56-2.56v0h-87.040c0 0-2.56 0-2.56 2.56 0 0 0 0 0 0l2.56 74.24c0-2.56 0 0 0 0s0 0 0 0zM4696.474 575.437h-156.16c0 0-2.56 0-2.56-2.56v-381.44c0 0 0-2.56 2.56-2.56h87.040c0 0 2.56 0 2.56 2.56v330.24c0 0 0 0 0 0s0 0 0 0h66.56c20.48 2.56 38.4-7.68 48.64-23.040 12.8-33.28 20.48-69.12 17.92-102.4 0-2.56 0-199.68 0-199.68s0-2.56 2.56-2.56h87.040c0 0 2.56 0 2.56 2.56 0 0 0 0 0 0v192c-2.56 84.48-20.48 186.88-158.72 186.88zM4317.594 575.437c-145.92 0-163.84-102.4-163.84-192s17.92-192 163.84-192c145.92 0 163.84 102.4 163.84 192s-17.92 192-163.84 192zM4373.914 273.357c-25.6-30.72-71.68-33.28-102.4-7.68-2.56 2.56-5.12 5.12-7.68 7.68-15.36 35.84-20.48 74.24-17.92 112.64v0c0 66.56 7.68 102.4 25.6 120.32 12.8 10.24 30.72 17.92 46.080 15.36 17.92 2.56 33.28-2.56 46.080-15.36 17.92-17.92 25.6-56.32 25.6-122.88 5.12-38.4 0-76.8-15.36-110.080zM2681.754 575.437c0 0 0 0 0 0l-97.28-248.32c0 0 0 0 0 0l-84.48 248.32c0 0 0 2.56-2.56 2.56h-92.16c0 0 0 0 0 0s0 0 0 0l128-376.32c0 0 0-2.56 0-2.56l-71.68-186.88c0 0 0 0 0-2.56 0 0 0 0 0 0h76.8c0 0 2.56 0 2.56 2.56l225.28 568.32c0 0 0 0 0 0s0 0 0 0l-84.48-5.12zM1295.36 58.88c-12.8 12.8-30.72 20.48-51.2 20.48-40.96 0-71.68-33.28-71.68-71.68 0-40.96 33.28-71.68 71.68-71.68 40.96 0 71.68 33.28 71.68 71.68 2.56 20.48-5.12 38.4-20.48 51.2v0zM1244.16-51.2c-33.28 0-61.44 28.16-61.44 61.44s28.16 61.44 61.44 61.44c33.28 0 61.44-28.16 61.44-61.44s-25.6-61.44-61.44-61.44c2.56 0 2.56 0 0 0v0zM1277.44-20.48c0 2.56 0 5.12 0 5.12v10.24c0 2.56 0 7.68-2.56 10.24s-2.56 2.56-5.12 5.12c2.56 2.56 5.12 2.56 5.12 5.12 2.56 2.56 2.56 7.68 2.56 12.8 0 7.68-5.12 15.36-12.8 20.48-5.12 2.56-10.24 2.56-15.36 2.56h-38.4v-81.92h17.92v33.28h23.040c2.56 0 5.12 0 7.68-2.56s5.12-5.12 5.12-7.68v-12.8c0-2.56 0-5.12 0-5.12s0-2.56 0-2.56v0h15.36v5.12c0-2.56 0 0-2.56 2.56zM1262.080 17.92c-2.56-2.56-7.68-2.56-10.24-2.56h-23.040v23.040h23.040c2.56 0 5.12 0 7.68-2.56s5.12-5.12 5.12-10.24c0-2.56 0-5.12-2.56-7.68v0zM793.6 714.24v-314.88c133.12-64 238.080 0 238.080 168.96 0 174.080-61.44 250.88-243.2 312.32-97.28 30.72-197.12 58.88-296.96 79.36v-936.96l215.040-66.56v785.92c0 35.84 15.36 61.44 43.52 53.76 35.84-10.24 43.52-46.080 43.52-81.92zM1305.6 194.56c25.6 33.28 15.36 79.36-87.040 112.64-94.72 33.28-197.12 46.080-296.96 35.84-53.76-5.12-107.52-17.92-158.72-33.28l-12.8-5.12v-128l230.4 81.92c40.96 15.36 87.040 15.36 128 7.68 30.72-10.24 25.6-30.72-12.8-43.52l-345.6-122.88v-125.44l468.48 168.96c30.72 7.68 61.44 25.6 87.040 51.2zM25.6 232.96c-46.080-35.84-30.72-97.28 74.24-125.44 107.52-35.84 220.16-43.52 330.24-25.6l20.48 2.56v112.64l-104.96-38.4c-40.96-15.36-87.040-15.36-128-7.68-30.72 10.24-25.6 30.72 12.8 43.52l220.16 79.36v125.44l-307.2-110.080c-40.96-12.8-81.92-33.28-117.76-56.32z" />
<glyph unicode="&#xe91b;" glyph-name="playstation-logo" horiz-adv-x="1326" d="M798.72 709.12v-320c135.68-64 240.64 0 240.64 171.52 0 176.64-61.44 253.44-245.76 317.44-71.68 25.6-204.8 64-296.96 81.92v-954.88l215.040-69.12v801.28c0 38.4 17.92 61.44 43.52 53.76 35.84-10.24 43.52-43.52 43.52-81.92zM1315.84 176.64c25.6 33.28 15.36 79.36-87.040 112.64-89.6 33.28-204.8 46.080-299.52 35.84s-161.28-33.28-161.28-33.28l-12.8-5.12v-130.56l232.96 81.92c38.4 15.36 97.28 17.92 130.56 7.68s25.6-30.72-12.8-43.52l-348.16-122.88v-125.44l473.6 168.96c-5.12-2.56 58.88 20.48 84.48 53.76zM25.6 215.040c-48.64-35.84-30.72-97.28 74.24-125.44 112.64-35.84 225.28-43.52 332.8-25.6 7.68 0 15.36 2.56 20.48 2.56v112.64l-107.52-38.4c-38.4-15.36-97.28-17.92-130.56-7.68-30.72 10.24-25.6 30.72 12.8 43.52l222.72 79.36v125.44l-307.2-110.080c0 0-74.24-23.040-117.76-56.32z" />
<glyph unicode="&#xe91c;" glyph-name="profile" horiz-adv-x="1101" d="M1018.88 483.84c-10.24 20.48-17.92 40.96-23.040 61.44-5.12 35.84-28.16 56.32-53.76 74.24-33.28 23.040-69.12 40.96-102.4 58.88-10.24 5.12-20.48 10.24-30.72 12.8h-76.8v-215.040c0-12.8-10.24-25.6-25.6-25.6 0 0 0 0 0 0h-312.32c-12.8 0-25.6 10.24-25.6 25.6v0 215.040h-76.8c-10.24-2.56-20.48-7.68-30.72-12.8-35.84-17.92-71.68-35.84-102.4-58.88-25.6-17.92-48.64-38.4-53.76-74.24-5.12-20.48-12.8-43.52-23.040-61.44-53.76-143.36-81.92-294.4-81.92-448 0-33.28 15.36-64 40.96-84.48 17.92-15.36 43.52-20.48 66.56-12.8 23.040 5.12 46.080 12.8 69.12 20.48 15.36 5.12 28.16 17.92 35.84 35.84 17.92 38.4 35.84 76.8 53.76 115.2 0 2.56 2.56 5.12 2.56 7.68 10.24 35.84 40.96 61.44 79.36 61.44 56.32 2.56 110.080 5.12 166.4 7.68h71.68c56.32 0 110.080-5.12 166.4-7.68 35.84 0 69.12-25.6 79.36-61.44 0-2.56 2.56-5.12 2.56-7.68 17.92-38.4 35.84-76.8 53.76-115.2 7.68-15.36 20.48-28.16 35.84-35.84 23.040-7.68 46.080-15.36 69.12-20.48 23.040-7.68 46.080-2.56 66.56 12.8 25.6 20.48 40.96 51.2 40.96 84.48 0 153.6-25.6 304.64-81.92 448zM880.64 591.36c20.48 0 38.4-17.92 38.4-38.4s-17.92-38.4-38.4-38.4c-20.48 0-38.4 17.92-38.4 38.4v0c0 23.040 15.36 38.4 38.4 38.4zM803.84 519.68c20.48 0 38.4-17.92 38.4-38.4s-17.92-38.4-38.4-38.4c-20.48 0-38.4 17.92-38.4 38.4v0c0 20.48 17.92 38.4 38.4 38.4zM161.28 483.84c0 38.4 30.72 69.12 69.12 69.12s69.12-30.72 69.12-69.12-30.72-69.12-69.12-69.12-69.12 30.72-69.12 69.12v0zM893.44 156.16c-2.56 2.56-2.56 7.68-5.12 10.24-15.36 46.080-46.080 66.56-89.6 69.12l-56.32 2.56c-48.64 2.56-99.84 5.12-148.48 5.12h-89.6c-48.64 0-99.84-2.56-148.48-5.12l-56.32-2.56c-46.080-2.56-74.24-25.6-89.6-69.12 0-2.56-2.56-7.68-5.12-10.24l-12.8 5.12c2.56 2.56 2.56 5.12 2.56 10.24 17.92 51.2 53.76 76.8 104.96 79.36l56.32 2.56c48.64 2.56 99.84 5.12 148.48 5.12h89.6c48.64 0 99.84-2.56 148.48-5.12l56.32-2.56c51.2-2.56 87.040-28.16 104.96-79.36 0-2.56 2.56-7.68 2.56-10.24l-12.8-5.12zM880.64 371.2c-20.48 0-38.4 17.92-38.4 38.4s17.92 38.4 38.4 38.4c20.48 0 38.4-17.92 38.4-38.4v0c-2.56-20.48-17.92-38.4-38.4-38.4zM954.88 445.44c-20.48 0-38.4 17.92-38.4 38.4s17.92 38.4 38.4 38.4c20.48 0 38.4-17.92 38.4-38.4v0c0-23.040-17.92-38.4-38.4-38.4zM709.12 668.16c-2.56 7.68-10.24 12.8-17.92 12.8h-79.36v258.56c0 10.24-7.68 20.48-20.48 20.48 0 0 0 0 0 0h-79.36c-10.24 0-20.48-7.68-20.48-20.48 0 0 0 0 0 0v-258.56h-79.36c-10.24 0-20.48-7.68-20.48-20.48 0-5.12 2.56-10.24 5.12-12.8l138.24-158.72c7.68-7.68 20.48-10.24 28.16-2.56 0 0 2.56 0 2.56 2.56l138.24 158.72c5.12 5.12 7.68 15.36 5.12 20.48z" />
<glyph unicode="&#xe91d;" glyph-name="remove" d="M401.334 836.668c15.826 23.74 42.472 37.999 71.003 37.999h79.326c28.531 0 55.177-14.259 71.002-37.999l38.669-58.001h160c17.673 0 32-14.327 32-32s-14.327-32-32-32h-618.667c-17.673 0-32 14.327-32 32s14.327 32 32 32h160l38.668 58.001zM640 21.333c94.255 0 170.667 76.412 170.667 170.667v469.333h-597.333v-469.333c0-94.255 76.41-170.667 170.667-170.667h256zM426.667 522.667c17.673 0 32-14.327 32-32v-298.667c0-17.673-14.327-32-32-32s-32 14.327-32 32v298.667c0 17.673 14.327 32 32 32zM597.333 522.667c17.673 0 32-14.327 32-32v-298.667c0-17.673-14.327-32-32-32s-32 14.327-32 32v298.667c0 17.673 14.327 32 32 32z" />
<glyph unicode="&#xe91e;" glyph-name="rupc" horiz-adv-x="1490" d="M1379.84 678.4c-12.8 25.6-23.040 53.76-30.72 84.48-7.68 43.52-35.84 79.36-74.24 102.4-43.52 30.72-92.16 53.76-140.8 79.36-12.8 7.68-28.16 12.8-43.52 17.92h-102.4v-291.84c0-17.92-15.36-33.28-33.28-33.28h-422.4c-17.92 0-33.28 15.36-33.28 33.28v289.28h-102.4c-15.36-5.12-28.16-10.24-43.52-17.92-46.080-25.6-94.72-51.2-140.8-79.36-38.4-20.48-66.56-58.88-74.24-102.4-5.12-28.16-15.36-56.32-28.16-81.92-74.24-194.56-110.080-399.36-110.080-606.72 0-46.080 20.48-87.040 53.76-115.2 25.6-20.48 58.88-25.6 89.6-17.92s61.44 17.92 92.16 28.16c23.040 7.68 38.4 25.6 48.64 48.64 25.6 51.2 48.64 102.4 74.24 156.16 2.56 2.56 2.56 7.68 5.12 10.24 12.8 48.64 56.32 81.92 107.52 81.92 74.24 2.56 151.040 7.68 225.28 10.24h97.28c74.24 0 151.040-5.12 225.28-10.24 51.2 0 94.72-33.28 107.52-81.92 2.56-2.56 2.56-7.68 5.12-10.24 25.6-51.2 48.64-102.4 74.24-156.16 10.24-23.040 25.6-38.4 48.64-48.64 30.72-10.24 61.44-20.48 92.16-28.16s64-2.56 89.6 17.92c35.84 28.16 56.32 71.68 53.76 115.2 0 207.36-35.84 412.16-110.080 606.72zM437.76 821.76c0 7.68 7.68 15.36 15.36 15.36s15.36-7.68 15.36-15.36v-35.84c0-7.68-7.68-15.36-15.36-15.36s-15.36 7.68-15.36 15.36v35.84zM312.32 583.68c-51.2 0-94.72 43.52-94.72 94.72s43.52 94.72 94.72 94.72c51.2 0 94.72-43.52 94.72-94.72v0c0-51.2-43.52-94.72-94.72-94.72v0zM604.16 432.64h-69.12v-69.12h-71.68v69.12h-69.12v71.68h69.12v69.12h71.68v-69.12h69.12v-71.68zM747.52 527.36c20.48 0 38.4-17.92 38.4-38.4s-17.92-38.4-38.4-38.4-38.4 17.92-38.4 38.4v0c2.56 20.48 17.92 38.4 38.4 38.4zM788.48 330.24h-79.36c-2.56 0-5.12 2.56-5.12 5.12s2.56 5.12 5.12 5.12c0 0 0 0 0 0h79.36c2.56 0 5.12-2.56 5.12-5.12s-2.56-5.12-5.12-5.12zM1190.4 824.32c28.16 0 51.2-23.040 51.2-51.2s-23.040-51.2-51.2-51.2-51.2 23.040-51.2 51.2c0 0 0 0 0 0 0 28.16 23.040 51.2 51.2 51.2zM1021.44 821.76c0 7.68 7.68 15.36 15.36 15.36s15.36-7.68 15.36-15.36v-35.84c0-7.68-7.68-15.36-15.36-15.36s-15.36 7.68-15.36 15.36v0 35.84zM972.8 373.76c-51.2 0-94.72 43.52-94.72 94.72s43.52 94.72 94.72 94.72 94.72-43.52 94.72-94.72-40.96-94.72-94.72-94.72v0zM1088 624.64c-28.16 0-51.2 23.040-51.2 51.2s23.040 51.2 51.2 51.2c28.16 0 51.2-23.040 51.2-51.2 0 0 0 0 0 0 0-28.16-23.040-51.2-51.2-51.2zM1190.4 527.36c-28.16 0-51.2 23.040-51.2 51.2s23.040 51.2 51.2 51.2c28.16 0 51.2-23.040 51.2-51.2 0 0 0 0 0 0 0-28.16-23.040-51.2-51.2-51.2zM1290.24 624.64c-28.16 0-51.2 23.040-51.2 51.2s23.040 51.2 51.2 51.2c28.16 0 51.2-23.040 51.2-51.2 0 0 0 0 0 0 0-28.16-23.040-51.2-51.2-51.2z" />
<glyph unicode="&#xe91f;" glyph-name="support" horiz-adv-x="932" d="M837.12 217.6v0c-40.96 48.64-92.16 87.040-151.040 110.080-58.88-56.32-138.24-89.6-225.28-89.6-84.48 0-163.84 33.28-222.72 87.040-53.76-23.040-104.96-58.88-143.36-104.96v-2.56c-64-74.24-94.72-158.72-94.72-250.88v-30.72h931.84v30.72c0 92.16-33.28 176.64-94.72 250.88v0zM140.8 478.72v0h66.56c-7.68 17.92-10.24 38.4-12.8 61.44v0h230.4v-61.44h-217.6c5.12-12.8 10.24-25.6 15.36-35.84 20.48-38.4 48.64-69.12 81.92-94.72 43.52-30.72 97.28-48.64 156.16-48.64s112.64 17.92 156.16 51.2c28.16 20.48 51.2 46.080 71.68 74.24 10.24 17.92 20.48 35.84 28.16 56.32v0h69.12c38.4 0 69.12 30.72 69.12 69.12v20.48c0 212.48-176.64 389.12-391.68 389.12s-391.68-176.64-391.68-391.68v-20.48c0-38.4 30.72-69.12 69.12-69.12v0zM463.36 898.56c151.040 0 279.040-102.4 320-240.64h-66.56c-38.4 104.96-138.24 179.2-253.44 179.2-117.76 0-217.6-74.24-253.44-179.2h-66.56c40.96 140.8 168.96 240.64 320 240.64v0z" />
<glyph unicode="&#xe920;" glyph-name="twitter" horiz-adv-x="1260" d="M1259.52 837.12c-48.64-20.48-97.28-35.84-148.48-38.4 53.76 30.72 94.72 81.92 115.2 140.8-51.2-28.16-107.52-51.2-166.4-64-46.080 51.2-115.2 81.92-184.32 81.92-143.36 5.12-258.56-107.52-261.12-248.32v-7.68c0-20.48 2.56-40.96 7.68-58.88-207.36 10.24-401.92 107.52-535.040 271.36-23.040-40.96-33.28-84.48-35.84-130.56 0-87.040 46.080-168.96 117.76-217.6-40.96 2.56-81.92 15.36-117.76 35.84 0-125.44 87.040-230.4 209.92-256l-71.68-7.68h-48.64c33.28-104.96 130.56-176.64 240.64-176.64-89.6-71.68-202.24-112.64-320-110.080h-61.44c120.32-74.24 256-115.2 396.8-115.2 473.6 0 734.72 394.24 734.72 737.28v30.72c48.64 38.4 92.16 81.92 128 133.12z" />
<glyph unicode="&#xe921;" glyph-name="twitch-logo" horiz-adv-x="980" d="M0 780.8v-711.68h245.76v-133.12h133.12l133.12 133.12h199.68l268.8 266.24v624.64h-913.92l-66.56-179.2zM156.16 870.4h737.28v-488.96l-156.16-156.16h-245.76l-133.12-133.12v133.12h-202.24v645.12zM401.92 693.76h89.6v-266.24h-89.6c0 0 0 266.24 0 266.24zM647.68 693.76h89.6v-266.24h-89.6v266.24z" />
<glyph unicode="&#xe922;" glyph-name="eye" horiz-adv-x="1252" d="M826.88 542.72l-294.4-294.4c28.16-12.8 61.44-20.48 94.72-20.48 122.88 0 220.16 99.84 220.16 220.16 0 33.28-7.68 66.56-20.48 94.72zM1244.16 460.8c-5.12 10.24-92.16 148.48-243.2 256l-138.24-138.24c20.48-38.4 33.28-84.48 33.28-130.56 0-148.48-122.88-271.36-271.36-271.36-48.64 0-92.16 12.8-130.56 33.28l-107.52-107.52c71.68-30.72 151.040-48.64 240.64-48.64 386.56 0 609.28 366.080 619.52 381.44l7.68 12.8-10.24 12.8zM1113.6 901.12l-35.84 35.84-166.4-166.4c-81.92 43.52-179.2 71.68-286.72 71.68-384 0-609.28-366.080-619.52-381.44l-5.12-12.8 7.68-12.8c5.12-10.24 107.52-174.080 286.72-284.16l-156.16-156.16 35.84-35.84 788.48 788.48 151.040 153.6zM762.88 622.080c-38.4 30.72-84.48 48.64-138.24 48.64-122.88 0-220.16-99.84-220.16-220.16 0-51.2 17.92-99.84 48.64-138.24l-35.84-35.84c-38.4 46.080-64 107.52-64 174.080 0 148.48 122.88 271.36 271.36 271.36 66.56 0 125.44-23.040 174.080-64l-35.84-35.84z" />
<glyph unicode="&#xe923;" glyph-name="windows-logo" horiz-adv-x="1021" d="M1021.44 960c0-161.28 0-322.56 0-486.4-184.32 0-368.64-2.56-552.96-5.12 0 135.68 0 273.92 0 409.6zM0 814.080c138.24 20.48 279.040 40.96 417.28 56.32 0-133.12 0-268.8 0-401.92-138.24 0-279.040-2.56-417.28-2.56v348.16zM0 424.96c138.24 0 279.040-2.56 417.28-2.56 0-135.68 0-268.8 0-404.48-138.24 23.040-279.040 40.96-417.28 58.88v348.16zM468.48 419.84h555.52c0-161.28 0-322.56 0-483.84-184.32 28.16-368.64 53.76-552.96 79.36-2.56 133.12-2.56 268.8-2.56 404.48z" />
<glyph unicode="&#xe924;" glyph-name="xbox-logo" d="M512 550.4c0 0 2.56-2.56 0 0 153.6-117.76 417.28-404.48 337.92-486.4-92.16-79.36-209.92-128-337.92-128s-245.76 48.64-337.92 125.44c-79.36 81.92 184.32 371.2 337.92 488.96-2.56-2.56 0 0 0 0zM778.24 885.76c-76.8 46.080-163.84 74.24-266.24 74.24s-189.44-28.16-266.24-74.24c0 0-2.56-2.56 0-2.56 0 0 2.56 0 2.56 0 99.84 20.48 250.88-64 263.68-71.68 0 0 0 0 0 0s0 0 0 0c15.36 7.68 163.84 94.72 263.68 71.68 2.56-2.56 2.56-2.56 2.56 2.56 2.56-2.56 2.56 0 0 0zM153.6 814.080c0-2.56-2.56-2.56 0 0-94.72-94.72-153.6-222.72-153.6-366.080 0-117.76 38.4-225.28 104.96-309.76 0 0 2.56-2.56 2.56 0 0 0 0 2.56 0 2.56-38.4 120.32 161.28 412.16 263.68 535.040 0 0 0 0 0 2.56 0 0 0 0 0 2.56-156.16 153.6-209.92 135.68-217.6 133.12zM652.8 678.4c0 0 0 0 0 0 0-2.56 0-2.56 0-2.56 102.4-122.88 302.080-414.72 263.68-535.040 0 0 0-2.56 0-2.56s2.56 0 2.56 0c66.56 84.48 104.96 192 104.96 309.76 0 143.36-58.88 271.36-151.040 363.52 0 0-2.56 2.56-2.56 2.56-7.68 2.56-61.44 20.48-217.6-135.68z" />
<glyph unicode="&#xe925;" glyph-name="youtube" horiz-adv-x="1449" d="M1436.16 737.28c-7.68 53.76-28.16 102.4-58.88 145.92-38.4 38.4-89.6 58.88-145.92 58.88-202.24 17.92-506.88 17.92-506.88 17.92s-302.080 0-506.88-17.92c-53.76 0-107.52-20.48-145.92-58.88-30.72-43.52-51.2-92.16-58.88-145.92-7.68-76.8-12.8-156.16-12.8-235.52v-107.52c0-79.36 5.12-156.16 12.8-235.52 7.68-53.76 28.16-102.4 58.88-145.92 43.52-38.4 99.84-58.88 158.72-58.88 117.76-12.8 494.080-17.92 494.080-17.92s304.64 5.12 506.88 17.92c53.76 2.56 104.96 23.040 145.92 58.88 30.72 43.52 51.2 92.16 58.88 145.92 7.68 79.36 12.8 156.16 12.8 235.52v107.52c0 79.36-5.12 158.72-12.8 235.52zM576 258.56v407.040l389.12-204.8-389.12-202.24z" />
<glyph unicode="&#xe926;" glyph-name="up" d="M460.865 719.022l-439.771-439.771c-28.125-28.125-28.125-74.147 0-102.272s74.147-28.125 102.272 0l388.634 391.191 388.634-388.634c28.125-28.125 74.147-28.125 102.272 0s28.125 74.147 0 102.272l-439.771 437.214c-28.125 28.125-74.147 28.125-102.272 0 0 0 0 0 0 0z" />
<glyph unicode="&#xe927;" glyph-name="eye-off" horiz-adv-x="1252" d="M624.64 668.16c-120.32 0-220.16-99.84-220.16-220.16s99.84-220.16 220.16-220.16 220.16 99.84 220.16 220.16-99.84 220.16-220.16 220.16zM1241.6 460.8c-5.12 10.24-92.16 148.48-243.2 256-12.8 7.68-89.6 53.76-89.6 53.76-81.92 43.52-179.2 71.68-286.72 71.68-384 0-609.28-366.080-619.52-381.44l-2.56-12.8 7.68-12.8c5.12-10.24 97.28-158.72 261.12-266.24 7.68-5.12 35.84-25.6 64-38.4 12.8-7.68 30.72-15.36 56.32-25.6 71.68-30.72 151.040-48.64 240.64-48.64 386.56 0 609.28 366.080 619.52 381.44l5.12 10.24-12.8 12.8zM624.64 176.64c-148.48 0-271.36 122.88-271.36 271.36s122.88 271.36 271.36 271.36c151.040 0 271.36-122.88 271.36-271.36s-120.32-271.36-271.36-271.36z" />
<glyph unicode="&#xe928;" glyph-name="search" horiz-adv-x="1030" d="M1015.808 26.112l-254.853 253.706c62.782 70.478 101.143 163.905 101.143 266.292 0 95.698-33.512 183.568-89.441 252.516l0.586-0.746c-81.744 99.463-204.775 162.409-342.509 162.409-65.832 0-128.305-14.38-184.45-40.171l2.753 1.134c-147.299-64.234-248.394-208.583-248.394-376.543 0-31.237 3.497-61.657 10.12-90.891l-0.522 2.743c47.826-187.739 215.394-324.364 414.872-324.364 2.121 0 4.239 0.015 6.353 0.046l-0.32-0.004c0.282-0.001 0.615-0.001 0.949-0.001 91.97 0 177.342 28.25 247.913 76.545l-1.505-0.973 254.853-255.427c10.419-10.072 24.63-16.279 40.29-16.279 15.199 0 29.032 5.846 39.374 15.413l-0.038-0.035c10.442 9.641 16.959 23.4 16.959 38.681 0 14.825-6.134 28.218-16.003 37.778l-0.014 0.013zM431.145 851.988c1.801 0.037 3.924 0.059 6.052 0.059 170.202 0 308.617-136.092 312.365-305.394l0.006-0.349c-3.639-169.742-142.101-305.951-312.375-305.951-2.184 0-4.363 0.022-6.537 0.067l0.325-0.005c-1.787-0.037-3.895-0.058-6.007-0.058-170.273 0-308.734 136.207-312.37 305.608l-0.006 0.339c3.753 169.652 142.169 305.746 312.371 305.746 2.171 0 4.338-0.022 6.498-0.066l-0.323 0.005z" />
<glyph unicode="&#xe929;" glyph-name="cross-circle" d="M726 272.667l-154 154 154 154-60 60-154-154-154 154-60-60 154-154-154-154 60-60 154 154 154-154zM512 852.667q176 0 301-125t125-301-125-301-301-125-301 125-125 301 125 301 301 125z" />
<glyph unicode="&#xe92a;" glyph-name="check-circle" horiz-adv-x="878" d="M733.714 531.428c0 9.714-3.429 19.429-10.286 26.286l-52 51.429c-6.857 6.857-16 10.857-25.714 10.857s-18.857-4-25.714-10.857l-233.143-232.571-129.143 129.143c-6.857 6.857-16 10.857-25.714 10.857s-18.857-4-25.714-10.857l-52-51.429c-6.857-6.857-10.286-16.571-10.286-26.286s3.429-18.857 10.286-25.714l206.857-206.857c6.857-6.857 16.571-10.857 25.714-10.857 9.714 0 19.429 4 26.286 10.857l310.286 310.286c6.857 6.857 10.286 16 10.286 25.714zM877.714 438.857c0-242.286-196.571-438.857-438.857-438.857s-438.857 196.571-438.857 438.857 196.571 438.857 438.857 438.857 438.857-196.571 438.857-438.857z" />
<glyph unicode="&#xe92b;" glyph-name="cross" d="M810 664.667l-238-238 238-238-60-60-238 238-238-238-60 60 238 238-238 238 60 60 238-238 238 238z" />
<glyph unicode="&#xe92c;" glyph-name="add-circle" horiz-adv-x="878" d="M694.857 402.286v73.143c0 20-16.571 36.571-36.571 36.571h-146.286v146.286c0 20-16.571 36.571-36.571 36.571h-73.143c-20 0-36.571-16.571-36.571-36.571v-146.286h-146.286c-20 0-36.571-16.571-36.571-36.571v-73.143c0-20 16.571-36.571 36.571-36.571h146.286v-146.286c0-20 16.571-36.571 36.571-36.571h73.143c20 0 36.571 16.571 36.571 36.571v146.286h146.286c20 0 36.571 16.571 36.571 36.571zM877.714 438.857c0-242.286-196.571-438.857-438.857-438.857s-438.857 196.571-438.857 438.857 196.571 438.857 438.857 438.857 438.857-196.571 438.857-438.857z" />
<glyph unicode="&#xe92d;" glyph-name="add" d="M810 384.667h-256v-256h-84v256h-256v84h256v256h84v-256h256v-84z" />
<glyph unicode="&#xe92e;" glyph-name="arrow-left" horiz-adv-x="2115" d="M26.040 389.12v0l430.080-430.080c33.28-33.28 84.48-33.28 117.76 0s33.28 84.48 0 117.76l-289.28 289.28h1748.48c46.080 0 81.92 35.84 81.92 81.92s-35.84 81.92-81.92 81.92h-1748.48l289.28 289.28c33.28 33.28 33.28 84.48 0 117.76s-84.48 33.28-117.76 0l-432.64-430.080c-30.72-33.28-30.72-84.48 2.56-117.76z" />
<glyph unicode="&#xe92f;" glyph-name="unlike" horiz-adv-x="1068" d="M957.92 381.44c61.44 0 110.080 51.2 110.080 110.080v355.84c0 61.44-51.2 112.64-110.080 112.64h-133.12c-25.6 0-48.64-7.68-66.56-23.040v-555.52h199.68zM0.48 547.84c0-25.6 10.24-51.2 28.16-69.12-20.48-23.040-30.72-53.76-28.16-84.48 5.12-56.32 56.32-99.84 115.2-99.84h276.48c-12.8-40.96-35.84-117.76-35.84-179.2 0-97.28 81.92-179.2 133.12-179.2 46.080 0 79.36 25.6 81.92 28.16 5.12 5.12 7.68 10.24 7.68 17.92v151.040l128 279.040 5.12 2.56v476.16c-35.84 17.92-81.92 25.6-110.080 25.6h-409.6c-48.64 0-92.16-33.28-99.84-76.8-5.12-23.040-2.56-46.080 7.68-66.56-33.28-15.36-53.76-51.2-53.76-89.6 0-15.36 2.56-30.72 10.24-43.52-35.84-20.48-56.32-53.76-56.32-92.16z" />
<glyph unicode="&#xe930;" glyph-name="windows" horiz-adv-x="4682" d="M-16.144 818.94l419.72 57.69v-405.033h-419.691l-0.028 347.345zM403.575 419.76v-400.454l-419.667 57.609-0.024 342.826 419.691 0.018zM450.004 882.998l558.502 76.771v-488.174h-558.502v411.402zM1008.505 419.76v-483.517l-558.502 76.696v406.822h558.502zM2117.966 724.092l-161.416-588.358h-110.487l-112.129 411.525c-4.661 17.496-7.534 36.65-8.629 57.439h-1.642c-1.372-19.427-4.656-38.296-9.855-56.619l-112.544-412.346h-112.949l-164.704 588.358h107.203l106.789-430.805c4.378-18.058 7.118-36.928 8.213-56.619h2.057c1.090 13.945 4.93 32.824 11.501 56.619l120.752 430.805h100.627l111.724-434.088c3.83-14.775 6.704-32.277 8.624-52.515h1.642c0.821 13.671 3.967 31.73 9.449 54.165l104.736 432.438h101.038zM2211.842 644.084c-15.61 0-28.955 5.057-40.046 15.185-11.091 10.119-16.634 22.979-16.634 38.565 0 15.591 5.543 28.583 16.634 38.98 11.091 10.392 24.436 15.591 40.046 15.591 16.152 0 29.843-5.198 41.070-15.591 11.228-10.397 16.842-23.389 16.842-38.98 0-14.765-5.614-27.428-16.842-37.951-11.227-10.534-24.917-15.798-41.070-15.798zM2259.073 135.734h-95.288v420.139h95.288v-420.139zM2732.872 135.734h-95.282v236.74c0 78.498-27.795 117.752-83.385 117.752-29.022 0-52.977-10.874-71.875-32.617-18.889-21.742-28.342-49.17-28.342-82.268v-239.608h-95.698v420.139h95.698v-69.748h1.642c31.484 53.062 76.942 79.597 136.362 79.597 45.731 0 80.639-14.846 104.736-44.518 24.096-29.682 36.145-72.555 36.145-128.626v-256.845zM3206.267 135.734h-95.292v71.393h-1.642c-30.672-54.165-77.904-81.244-141.703-81.244-51.751 0-93.17 18.804-124.248 56.42-31.078 37.607-46.617 88.829-46.617 153.656 0 69.478 17.181 125.135 51.552 166.982 34.362 41.853 80.159 62.78 137.391 62.78 56.675 0 97.887-22.71 123.625-68.11h1.642v260.129h95.292v-622.008zM3112.211 327.752v54.977c0 29.814-9.727 55.109-29.163 75.903-19.445 20.786-44.221 31.187-74.346 31.187-35.597 0-63.591-13.275-83.989-39.801-20.398-26.54-30.597-63.337-30.597-110.379 0-42.655 9.784-76.385 29.361-101.132 19.578-24.757 45.938-37.126 79.064-37.126 32.589 0 59.006 11.963 79.271 35.9s30.399 54.090 30.399 90.471zM3491.955 125.883c-64.903 0-116.719 19.624-155.467 58.873s-58.118 91.292-58.118 156.128c0 70.563 20.19 125.677 60.581 165.341 40.391 39.659 94.811 59.497 163.27 59.497 65.714 0 116.917-19.284 153.61-57.854s55.043-92.042 55.043-160.425c0-67.025-19.785-120.69-59.355-161.044-39.57-40.343-92.754-60.515-159.563-60.515zM3496.465 489.82c-37.24 0-66.676-12.996-88.3-38.985-21.634-25.989-32.446-61.812-32.446-107.487 0-44.041 10.944-78.715 32.852-104.019s51.203-37.947 87.895-37.947c37.513 0 66.336 12.445 86.461 37.325 20.124 24.898 30.191 60.317 30.191 106.283 0 46.212-10.067 81.914-30.191 107.076-20.126 25.173-48.949 37.754-86.462 37.754zM4348.149 555.873l-124.040-420.138h-99.812l-76.394 284.744c-3.020 10.935-4.925 23.243-5.746 36.923h-1.651c-0.548-9.303-3.010-21.327-7.388-36.103l-82.97-285.565h-97.754l-123.625 420.138h98.576l76.394-302.788c2.463-9.029 4.104-21.077 4.925-36.107h2.878c0.821 11.491 3.010 23.794 6.566 36.919l85.027 301.977h89.536l75.573-304.024c2.463-9.576 4.246-21.615 5.339-36.107h2.878c0.548 10.105 2.594 22.163 6.161 36.107l74.753 304.024h90.772zM4367.265 148.857v88.225c35.597-27.088 74.894-40.627 117.879-40.627 57.505 0 86.253 16.945 86.253 50.873 0 9.576-2.463 17.709-7.388 24.418-4.935 6.699-11.577 12.642-19.927 17.851-8.35 5.189-18.209 9.85-29.569 13.945-11.369 4.104-24.030 8.756-37.995 13.954-17.247 6.831-32.795 14.077-46.618 21.738-13.831 7.661-25.333 16.331-34.503 26.060-9.17 9.708-16.087 20.719-20.737 33.022-4.661 12.312-6.982 26.682-6.982 43.089 0 20.233 4.783 38.084 14.379 53.548 9.577 15.44 22.445 28.437 38.607 38.97 16.152 10.53 34.504 18.464 55.034 23.799 20.539 5.331 41.759 8.001 63.667 8.001 38.881 0 73.658-5.887 104.322-17.643v-83.296c-29.569 20.243-63.525 30.366-101.859 30.366-12.048 0-22.937-1.226-32.654-3.689s-18.011-5.887-24.851-10.26c-6.841-4.378-12.18-9.643-16.011-15.794-3.84-6.157-5.755-12.93-5.755-20.313 0-9.020 1.915-16.69 5.755-22.974 3.831-6.293 9.51-11.831 17.039-16.625 7.529-4.783 16.568-9.161 27.106-13.124s22.662-8.275 36.353-12.917c18.077-7.388 34.296-14.926 48.674-22.578 14.37-7.652 26.626-16.35 36.758-26.060 10.124-9.708 17.926-20.917 23.408-33.636s8.218-27.833 8.218-45.335c0-21.342-4.925-39.947-14.784-55.807-9.86-15.851-23.002-28.994-39.428-39.381-16.436-10.397-35.399-18.115-56.892-23.182s-44.155-7.595-67.969-7.595c-46.004 0-85.847 7.661-119.53 22.974z" />
<glyph unicode="&#xe931;" glyph-name="xbox" horiz-adv-x="3369" d="M3370.972 133.001l-232.336 313.042 212.282 284.184h-79.728l-172.662-231.847-172.662 231.847h-79.239l211.793-284.673-231.847-313.042h79.728l192.228 259.239 192.717-259.239h79.728zM1788.151 133.001l-231.847 313.042 211.793 284.184h-79.239l-172.662-231.847-172.662 231.847h-79.728l212.282-284.673-232.336-313.042h79.728l192.717 259.239 192.228-259.239h79.728zM2066.465 195.61c0 0-149.673 0-177.554 0v217.174c27.391 0 177.554 0 177.554 0 67.499 0 147.717-18.098 147.717-103.696 0-98.804-92.935-113.478-147.717-113.478zM1888.912 668.108c27.391 0 177.554 0 177.554 0 47.934 0 128.641-11.739 128.641-94.891 0-62.609-46.956-100.271-128.641-100.271 0 0-149.673 0-177.554 0 0 0 0 195.163 0 195.163zM2229.345 423.543c-12.718 10.761-25.923 19.076-39.619 24.946 43.533 23.478 72.391 67.989 72.391 119.347 0 38.152-14.185 162.391-196.141 162.391h-245.054v-257.771c0 0-79.239 0-81.685 0-10.761-13.696-34.729-46.467-44.022-59.674 8.804 0 125.706 0 125.706 0v-279.782h245.054c133.043 0 215.706 67.010 215.706 174.619 0.489 46.956-17.608 87.064-52.337 115.924zM2600.593 182.892c-129.619 0-220.108 102.228-220.108 248.967s90.489 248.967 220.108 248.967c129.13 0 219.13-102.228 219.13-248.967 0-146.25-90-248.967-219.13-248.967zM2600.593 743.923c-170.217 0-288.586-128.151-288.586-312.064s118.369-312.064 288.586-312.064c169.238 0 287.608 128.151 287.608 312.064s-118.369 312.064-287.608 312.064zM459.31-58.807c-78.208 7.459-157.435 35.601-225.584 80.13-57.074 37.296-69.958 52.554-69.958 83.182 0 61.369 67.472 168.963 182.75 291.475 65.551 69.62 156.756 151.219 166.59 149.071 19.213-4.295 172.58-154.158 229.993-224.568 90.867-111.662 132.684-202.981 111.436-243.668-16.162-30.967-116.183-91.432-189.645-114.601-60.578-19.213-140.143-27.35-205.581-21.022zM86.8 168.248c-47.354 72.784-71.315 144.551-82.955 248.188-3.843 34.244-2.487 53.796 8.702 124.094 13.902 87.59 63.629 188.854 123.529 251.24 25.542 26.559 27.802 27.237 58.883 16.727 37.748-12.772 77.983-40.574 140.482-97.195l36.505-33.001-19.892-24.525c-92.562-113.697-190.097-274.86-226.828-374.543-20.004-54.136-28.029-108.611-19.439-131.214 5.764-15.257 0.452-9.607-18.987 20.23zM918.616 155.928c4.634 22.83-1.243 64.873-15.145 107.255-29.95 91.771-130.424 262.655-222.646 378.725l-29.046 36.505 31.419 28.932c41.026 37.748 69.506 60.351 100.247 79.452 24.299 15.145 58.883 28.481 73.801 28.481 9.155 0 41.478-33.567 67.585-70.298 40.461-56.736 70.185-125.677 85.216-197.33 9.72-46.338 10.51-145.455 1.582-191.567-7.347-37.861-22.942-87.025-38.087-120.477-11.415-24.977-39.669-73.462-52.101-89.285-6.329-7.912-6.329-7.912-2.825 9.607v0zM467.674 832.683c-42.608 21.699-108.272 44.868-144.551 51.198-12.772 2.147-34.357 3.39-48.259 2.712-29.95-1.47-28.594 0 19.439 22.717 39.896 18.874 73.236 29.95 118.444 39.444 50.858 10.737 146.359 10.85 196.426 0.226 54.023-11.415 117.652-35.149 153.479-57.188l10.624-6.555-24.412 1.243c-48.598 2.487-119.347-17.179-195.409-54.249-22.942-11.189-42.834-20.117-44.303-19.779-1.357 0.226-20.117 9.38-41.478 20.23z" />
<glyph unicode="&#xe932;" glyph-name="star-empty" d="M1024 562.95l-353.78 51.408-158.22 320.582-158.216-320.582-353.784-51.408 256-249.538-60.432-352.352 316.432 166.358 316.432-166.358-60.434 352.352 256.002 249.538zM512 206.502l-223.462-117.48 42.676 248.83-180.786 176.222 249.84 36.304 111.732 226.396 111.736-226.396 249.836-36.304-180.788-176.222 42.678-248.83-223.462 117.48z" />
<glyph unicode="&#xe933;" glyph-name="upload" horiz-adv-x="1100" d="M1017.915 484.288c-10.227 20.462-17.903 40.92-23.017 61.382-5.114 35.806-28.134 56.268-53.709 74.171-33.248 23.017-69.054 40.92-102.301 58.823-10.231 5.117-20.462 10.231-30.693 12.79h-76.726v-214.837c0-12.79-10.231-25.575-25.575-25.575 0 0 0 0 0 0h-312.025c-12.79 0-25.575 10.231-25.575 25.575v0 214.837h-76.73c-10.231-2.559-20.462-7.672-30.689-12.79-35.806-17.903-71.612-35.806-102.305-58.823-25.575-17.903-48.592-38.365-53.709-74.171-5.114-20.462-12.786-43.478-23.017-61.382-53.709-143.225-81.843-294.122-81.843-447.578 0-33.248 15.344-63.937 40.92-84.398 17.903-15.344 43.478-20.462 66.499-12.79 23.017 5.117 46.037 12.79 69.054 20.462 15.344 5.114 28.134 17.903 35.806 35.806 17.903 38.365 35.806 76.726 53.709 115.091 0 2.559 2.559 5.114 2.559 7.672 10.231 35.806 40.92 61.382 79.285 61.382 56.264 2.559 109.974 5.117 166.242 7.672h71.612c56.268 0 109.977-5.114 166.242-7.672 35.806 0 69.057-25.575 79.285-61.382 0-2.559 2.559-5.114 2.559-7.672 17.903-38.365 35.806-76.726 53.709-115.091 7.672-15.344 20.462-28.134 35.806-35.806 23.020-7.672 46.037-15.344 69.054-20.462 23.020-7.672 46.037-2.555 66.499 12.79 25.575 20.462 40.92 51.151 40.92 84.398 0 153.456-25.575 304.353-81.843 447.578zM879.807 591.707c20.462 0 38.365-17.903 38.365-38.365 0-20.458-17.903-38.361-38.365-38.361s-38.365 17.903-38.365 38.361v0c0 23.020 15.348 38.365 38.365 38.365zM803.081 520.094c20.458 0 38.361-17.903 38.361-38.365 0-20.458-17.903-38.361-38.361-38.361-20.462 0-38.365 17.903-38.365 38.361v0c0 20.462 17.903 38.365 38.365 38.365zM161.128 484.288c0 38.365 30.689 69.054 69.054 69.054s69.054-30.689 69.054-69.054c0-38.365-30.689-69.054-69.054-69.054s-69.054 30.689-69.054 69.054v0zM892.597 156.919c-2.559 2.559-2.559 7.672-5.117 10.231-15.344 46.037-46.037 66.495-89.516 69.054l-56.264 2.559c-48.596 2.555-99.746 5.114-148.342 5.114h-89.516c-48.592 0-99.746-2.559-148.338-5.114l-56.268-2.559c-46.037-2.559-74.167-25.575-89.516-69.054 0-2.559-2.555-7.672-5.114-10.231l-12.79 5.114c2.559 2.559 2.559 5.117 2.559 10.231 17.903 51.151 53.709 76.726 104.86 79.285l56.268 2.559c48.592 2.559 99.746 5.114 148.338 5.114h89.516c48.596 0 99.746-2.555 148.342-5.114l56.264-2.559c51.151-2.559 86.957-28.134 104.86-79.285 0-2.559 2.559-7.672 2.559-10.231l-12.786-5.114zM879.807 371.756c-20.462 0-38.365 17.903-38.365 38.361 0 20.462 17.903 38.365 38.365 38.365s38.365-17.903 38.365-38.365v0c-2.559-20.458-17.903-38.361-38.365-38.361zM953.978 445.923c-20.462 0-38.365 17.903-38.365 38.365s17.903 38.365 38.365 38.365c20.458 0 38.361-17.903 38.361-38.365v0c0-23.017-17.903-38.365-38.361-38.365zM392.313 773.781c2.555-7.672 10.231-12.79 17.903-12.79h79.285v-258.316c0-10.231 7.672-20.462 20.462-20.462 0 0 0 0 0 0h79.285c10.227 0 20.458 7.676 20.458 20.462 0 0 0 0 0 0v258.316h79.285c10.231 0 20.462 7.672 20.462 20.462 0 5.114-2.559 10.231-5.114 12.786l-138.111 158.573c-7.672 7.672-20.462 10.227-28.134 2.555 0 0-2.555 0-2.555-2.555l-138.111-158.573c-5.114-5.114-7.672-15.344-5.114-20.458z" />
<glyph unicode="&#xe934;" glyph-name="left" horiz-adv-x="584" d="M22.106 397.158l440.32-440.32c28.16-28.16 74.24-28.16 102.4 0s28.16 74.24 0 102.4l-391.68 389.12 389.12 389.12c28.16 28.16 28.16 74.24 0 102.4s-74.24 28.16-102.4 0l-437.76-440.32c-28.16-28.16-28.16-74.24 0-102.4 0 0 0 0 0 0z" />
<glyph unicode="&#xe935;" glyph-name="cookies" d="M1020.538 507.756c-0.678 5.762-2.786 11.262-6.134 15.998s-7.828 8.558-13.030 11.116c-5.202 2.558-10.962 3.77-16.754 3.526s-11.428-1.936-16.398-4.924c-11.604-7.020-24.572-11.476-38.038-13.068s-27.114-0.282-40.032 3.838-24.808 10.96-34.87 20.056c-10.062 9.096-18.064 20.242-23.47 32.69-1.848 4.224-4.52 8.036-7.856 11.214s-7.27 5.664-11.574 7.306c-4.304 1.642-8.894 2.408-13.496 2.258s-9.13-1.22-13.318-3.142c-17.702-8.166-37.476-10.704-56.664-7.274s-36.86 12.666-50.644 26.46c-13.782 13.794-23.008 31.486-26.436 50.692s-0.894 39 7.264 56.718c1.922 4.188 2.99 8.72 3.142 13.326 0.154 4.608-0.612 9.2-2.25 13.506-1.638 4.308-4.118 8.248-7.294 11.586s-6.982 6.010-11.202 7.86c-12.434 5.412-23.568 13.422-32.658 23.494s-15.922 21.972-20.038 34.902c-4.12 12.93-5.428 26.594-3.84 40.074s6.038 26.462 13.048 38.080c2.986 4.974 4.678 10.618 4.924 16.414s-0.966 11.564-3.518 16.772c-2.554 5.208-6.372 9.694-11.106 13.046-4.73 3.352-10.228 5.464-15.986 6.142-72.816 8.654-146.638 1.55-216.472-20.832s-134.050-59.516-188.302-108.896c-54.254-49.378-97.276-109.846-126.156-177.31s-42.948-140.354-41.246-213.73c3.236-141.316 62.652-271.76 167.294-367.306 96.638-88.242 220.634-132.36 344.658-132.352 124.032 0.008 248.090 44.134 344.74 132.394 60.106 55.018 106.294 123.542 134.758 199.928s38.386 158.452 28.952 239.432v0zM810.054 119.712c-167.064-152.568-428.8-152.592-595.864-0.042-66.056 60.126-112.402 138.84-132.956 225.808s-14.352 178.128 17.79 261.504c32.142 83.378 88.72 155.076 162.308 205.684s160.744 77.758 250.026 77.884c2.482 0 4.97-0.020 7.462-0.058-6-27.064-5.078-55.208 2.678-81.82 7.76-26.612 22.106-50.834 41.708-70.418 6.86-6.878 14.326-13.122 22.304-18.664-6.56-27.4-5.99-56.030 1.658-83.148s22.116-51.82 42.022-71.744c19.904-19.926 44.582-34.404 71.676-42.058 27.092-7.654 55.692-8.226 83.068-1.656 5.536-7.988 11.776-15.462 18.644-22.334 19.558-19.614 43.742-33.972 70.316-41.74 26.572-7.772 54.674-8.704 81.706-2.714 0.846-62.806-11.596-125.078-36.508-182.726s-61.732-109.366-108.038-151.754v0zM496.9 569.418c0 29.192-8.648 57.73-24.852 82.004s-39.234 43.192-66.178 54.366c-26.944 11.172-56.594 14.096-85.2 8.4-28.606-5.694-54.88-19.752-75.502-40.396s-34.668-46.944-40.356-75.576-2.77-58.312 8.392-85.284c11.162-26.972 30.062-50.024 54.312-66.244s52.762-24.876 81.926-24.876c39.096 0.044 76.58 15.61 104.224 43.282s43.196 65.192 43.238 104.326v0zM271.368 569.418c0 15.456 4.58 30.564 13.156 43.416s20.772 22.868 35.036 28.782c14.264 5.914 29.962 7.462 45.106 4.448 15.142-3.014 29.054-10.456 39.972-21.386s18.354-24.854 21.366-40.012c3.012-15.158 1.466-30.87-4.442-45.152s-15.916-26.484-28.752-35.070c-12.838-8.586-27.932-13.168-43.372-13.168-20.698 0.022-40.54 8.262-55.178 22.914s-22.868 34.512-22.892 55.232zM725.252 459.34c-22.302 0-44.104-6.62-62.648-19.022s-32.998-30.032-41.534-50.658c-8.534-20.626-10.768-43.32-6.418-65.216s15.092-42.008 30.862-57.794c15.77-15.788 35.864-26.538 57.738-30.892s44.548-2.12 65.154 6.424c20.606 8.544 38.218 23.010 50.608 41.572s19.004 40.384 19.004 62.71c-0.034 29.926-11.928 58.616-33.066 79.778s-49.802 33.062-79.7 33.098zM725.252 303.050c-8.578 0-16.962 2.548-24.096 7.316s-12.692 11.552-15.974 19.484c-3.282 7.932-4.14 16.662-2.466 25.084s5.804 16.158 11.87 22.23c6.066 6.070 13.794 10.206 22.206 11.88s17.134 0.816 25.058-2.472 14.698-8.85 19.464-15.99c4.768-7.14 7.31-15.532 7.31-24.12-0.014-11.51-4.586-22.544-12.716-30.682s-19.154-12.716-30.654-12.73v0zM435.38 330.708c-22.304 0-44.106-6.62-62.65-19.024-18.546-12.404-32.998-30.032-41.532-50.658-8.536-20.624-10.77-43.32-6.416-65.216s15.092-42.010 30.86-57.794c15.772-15.788 35.864-26.538 57.738-30.892s44.548-2.12 65.154 6.424c20.606 8.544 38.218 23.010 50.608 41.572s19.004 40.384 19.004 62.71c-0.034 29.926-11.926 58.616-33.066 79.778s-49.802 33.062-79.7 33.1v0zM435.38 174.418c-8.578 0-16.964 2.548-24.096 7.316-7.13 4.77-12.69 11.552-15.974 19.484s-4.142 16.662-2.468 25.084c1.674 8.422 5.804 16.158 11.87 22.23s13.794 10.206 22.208 11.88c8.414 1.674 17.134 0.816 25.058-2.472s14.7-8.85 19.464-15.99c4.766-7.14 7.308-15.532 7.308-24.12-0.012-11.51-4.586-22.544-12.716-30.682-8.132-8.138-19.156-12.716-30.654-12.73v0z" />
<glyph unicode="&#xe936;" glyph-name="loading" d="M512 789.333v85.333c-235.641 0-426.667-191.025-426.667-426.667v0h85.333c0 188.513 152.82 341.333 341.333 341.333v0z" />
<glyph unicode="&#xe937;" glyph-name="edit-rect" d="M852.365 849.389c-33.707 33.704-88.35 33.704-122.052 0l-18.359-18.359v-42.154l0.026-0.416c0.051-0.785 0.183-2.339 0.499-4.552 0.631-4.433 1.997-11.444 4.915-20.194 5.781-17.351 17.788-41.933 43.089-67.233s49.882-37.307 67.234-43.091c8.747-2.916 15.761-4.281 20.194-4.914 2.21-0.316 3.767-0.448 4.553-0.5l0.414-0.025h42.155l18.359 18.359c33.702 33.704 33.702 88.348 0 122.052l-61.026 61.026zM815.232 568.153c-4.527 1.165-9.378 2.576-14.502 4.284-28.416 9.473-64.862 27.98-100.587 63.705s-54.234 72.169-63.706 100.588c-1.707 5.124-3.119 9.975-4.284 14.502l-247.657-247.658c-13.204-13.201-21.769-30.332-24.41-48.819l-18.307-128.154c-4.069-28.48 20.342-52.89 48.82-48.823l128.155 18.308c18.487 2.641 35.618 11.209 48.819 24.41l247.659 247.658zM281.6 789.333c-61.267 0-110.933-49.667-110.933-110.933v-460.8c0-61.265 49.667-110.933 110.933-110.933h460.8c61.265 0 110.933 49.668 110.933 110.933v230.4c0 23.565 19.102 42.667 42.667 42.667s42.667-19.102 42.667-42.667v-230.4c0-108.395-87.872-196.267-196.267-196.267h-460.8c-108.395 0-196.267 87.872-196.267 196.267v460.8c0 108.395 87.872 196.267 196.267 196.267h230.4c23.565 0 42.667-19.103 42.667-42.667s-19.102-42.667-42.667-42.667h-230.4z" />
<glyph unicode="&#xe938;" glyph-name="check" horiz-adv-x="1303" d="M442.142 5.809c-24.204 0-47.476 9.309-66.095 27l-349.091 349.091c-36.305 36.305-36.305 94.953 0 131.258s94.953 36.305 131.258 0l282.996-282.996 702.839 702.836c36.305 36.305 94.953 36.305 131.258 0s36.305-94.953 0-131.258l-767.072-768.931c-18.618-18.622-41.891-27-66.095-27z" />
<glyph unicode="&#xe939;" glyph-name="file-upload" horiz-adv-x="964" d="M803.141 327.529c-10.644-0.018-20.847-4.253-28.377-11.776-7.523-7.529-11.764-17.733-11.776-28.383v-96.376c-0.018-6.385-2.56-12.505-7.078-17.016-4.512-4.518-10.638-7.060-17.016-7.078h-514.018c-6.384 0.018-12.504 2.56-17.016 7.078-4.518 4.512-7.061 10.638-7.078 17.016v96.376c0 14.348-7.653 27.606-20.076 34.78s-27.731 7.174-40.159 0c-12.424-7.174-20.076-20.432-20.076-34.78v-96.376c0.033-27.672 11.047-54.218 30.618-73.788s46.112-30.581 73.788-30.618h514.018c27.678 0.036 54.218 11.047 73.788 30.618s30.587 46.116 30.618 73.788v96.376c-0.018 10.65-4.253 20.853-11.782 28.383-7.529 7.523-17.733 11.758-28.377 11.776zM481.743 279.341c10.644 0.018 20.852 4.253 28.375 11.776 7.529 7.529 11.767 17.733 11.783 28.383v364.013l126.893-105.729c8.186-6.803 18.733-10.084 29.335-9.121 10.595 0.963 20.384 6.093 27.208 14.262 6.807 8.186 10.089 18.732 9.126 29.333-0.97 10.6-6.096 20.383-14.264 27.208l-192.753 160.632c-2.028 1.436-4.179 2.683-6.427 3.727-1.468 0.984-3.001 1.861-4.592 2.63-9.358 3.942-19.91 3.942-29.268 0-1.549-0.769-3.055-1.64-4.496-2.597-2.248-1.049-4.4-2.297-6.427-3.727l-192.753-160.632c-8.497-7.072-13.709-17.334-14.397-28.365-0.693-11.036 3.2-21.868 10.751-29.94s18.098-12.677 29.155-12.725c9.39 0.016 18.48 3.313 25.702 9.315l126.892 105.729v-364.013c0.016-10.65 4.254-20.853 11.784-28.383 7.524-7.523 17.731-11.758 28.374-11.776z" />
<glyph unicode="&#xe93a;" glyph-name="share" horiz-adv-x="979" d="M734.609 833.869c55.323 0 100.174-44.849 100.174-100.174s-44.851-100.174-100.174-100.174c-36.254 0-68.011 19.26-85.597 48.107-0.267 0.561-0.561 1.115-0.877 1.662-0.325 0.552-0.663 1.085-1.024 1.599-8.076 14.441-12.675 31.086-12.675 48.807 0 55.324 44.851 100.174 100.174 100.174zM622.307 642.445c26.531-32.612 66.983-53.445 112.302-53.445 79.912 0 144.696 64.783 144.696 144.696s-64.784 144.696-144.696 144.696c-79.912 0-144.696-64.782-144.696-144.696 0-18.635 3.522-36.447 9.937-52.807l-242.68-141.623c-26.531 32.612-66.983 53.445-112.301 53.445-79.913 0-144.696-64.783-144.696-144.697 0-79.912 64.782-144.696 144.696-144.696 45.323 0 85.778 20.841 112.309 53.457l242.743-141.454c-6.46-16.406-10.008-34.282-10.008-52.985 0-79.917 64.784-144.696 144.696-144.696s144.696 64.779 144.696 144.696c0 79.912-64.784 144.696-144.696 144.696-45.247 0-85.646-20.769-112.177-53.297l-242.8 141.486c6.413 16.357 9.934 34.166 9.934 52.794 0 18.637-3.523 36.45-9.939 52.807l242.68 141.625zM330.466 500.082c0.268-0.561 0.561-1.113 0.879-1.661 0.322-0.552 0.663-1.082 1.024-1.598 8.073-14.438 12.675-31.085 12.675-48.809 0-17.72-4.602-34.366-12.675-48.809-0.363-0.516-0.707-1.051-1.031-1.607-0.316-0.543-0.606-1.091-0.872-1.647-17.584-28.85-49.341-48.11-85.596-48.11-55.324 0-100.174 44.851-100.174 100.174 0 55.327 44.849 100.175 100.174 100.175 36.255 0 68.012-19.26 85.596-48.107zM646.153 209.395c0.886 1.024 1.687 2.146 2.395 3.357 0.686 1.175 1.251 2.391 1.701 3.624 17.813 27.746 48.938 46.133 84.36 46.133 55.323 0 100.174-44.851 100.174-100.174 0-55.327-44.851-100.174-100.174-100.174s-100.174 44.847-100.174 100.174c0 17.007 4.238 33.026 11.718 47.059z" />
<glyph unicode="&#xe93b;" glyph-name="copy" d="M334.823 681.658c0 47.128 38.205 85.333 85.333 85.333h384c47.13 0 85.333-38.205 85.333-85.333v-597.335c0-47.125-38.204-85.333-85.333-85.333h-384c-47.128 0-85.333 38.208-85.333 85.333v597.335zM249.489 894.99c-47.128 0-85.333-38.205-85.333-85.333v-597.334c0-47.13 38.205-85.333 85.333-85.333h42.667v554.668c0 70.692 57.308 128 128 128h298.666c0 47.128-38.204 85.333-85.333 85.333h-384z" />
<glyph unicode="&#xe93c;" glyph-name="verified" horiz-adv-x="956" d="M919.436 496.544c-18.439-29.779-18.439-67.359 0-97.138 27.955-45.277 12.049-104.735-34.843-129.957-30.897-16.609-49.739-49.125-48.62-84.173 1.618-53.18-41.936-96.734-95.116-95.109-35.048 1.010-67.561-17.831-84.173-48.62-25.222-46.899-84.679-62.805-129.957-34.85-29.78 18.439-67.359 18.439-97.138 0-45.277-27.955-104.735-12.049-129.957 34.85-16.611 30.891-49.227 49.732-84.173 48.62-53.178-1.625-96.733 41.929-95.113 95.109 1.013 35.048-17.726 67.564-48.62 84.173-46.898 25.222-62.902 84.68-34.844 129.957 18.435 29.779 18.435 67.359 0 97.138-27.956 45.277-12.054 104.735 34.844 129.957 30.893 16.612 49.734 49.228 48.62 84.173-1.621 53.178 41.935 96.733 95.113 95.113 35.047-1.012 67.561 17.726 84.173 48.62 25.222 46.898 84.68 62.902 129.957 34.844 29.779-18.435 67.358-18.435 97.138 0 45.277 27.956 104.735 12.054 129.957-34.844 16.612-30.894 49.125-49.734 84.173-48.62 53.18 1.621 96.734-41.934 95.116-95.113-1.017-35.047 17.824-67.561 48.62-84.173 46.892-25.221 62.799-84.679 34.843-129.957zM649.545 555.287c16.151 19.259 13.629 47.965-5.631 64.115s-47.966 13.629-64.115-5.631l-192.29-229.315-55.132 72.809c-15.173 20.038-43.718 23.982-63.756 8.808s-23.983-43.718-8.809-63.756l89.6-118.329c8.363-11.045 21.302-17.68 35.152-18.022 13.85-0.348 27.103 5.639 36.004 16.254l228.978 273.067z" />
<glyph unicode="&#xe93d;" glyph-name="playtest" d="M357.528 181.995c0-41.766 33.456-75.627 74.719-75.627 41.161 0 74.615 33.86 74.722 75.627 0 41.766-33.455 75.627-74.722 75.627-41.263 0-74.719-33.86-74.719-75.627zM514.172 292.092c0-24.004 19.255-43.503 42.982-43.503 23.714 0 42.88 19.392 42.982 43.503 0 24.009-19.26 43.503-42.982 43.503-23.718 0-42.982-19.49-42.982-43.503zM922.854 45.871c-1.835 3.277-3.772 6.558-6.421 11.264l-282.266 494.284v267.266h6.938c14.374 0 27.631 5.628 37.525 14.85 0.512 0.515 1.122 0.922 1.63 1.436 9.993 10.036 16.209 23.964 16.209 39.322v30.107c0 15.257-6.217 29.186-16.209 39.322-10.095 10.036-23.966 16.278-39.159 16.278h-258.39c-15.194 0-29.064-6.243-39.158-16.278-9.994-10.036-16.211-23.964-16.211-39.221v-30.108c0-15.357 6.217-29.186 16.211-39.322 9.994-10.036 23.863-16.278 39.158-16.278h6.935v-267.266l-290.622-509.132c-13.152-23.142-24.676-44.642-21.724-65.229 3.571-25.293 23.254-41.165 73.115-41.165h722.785c55.979 0 74.035 19.558 74.035 48.337 0.098 19.827-11.955 40.367-23.949 60.813l-0.431 0.73v-0.009zM125.19-7.049l12.346 23.765c-5.106-9.011-9.722-17.404-12.346-23.765zM521.702 418.837c0-16.021-14.524-29.167-32.235-29.167-17.818 0-32.239 13.146-32.239 29.167 0 16.017 14.528 29.163 32.239 29.163 17.707 0 32.235-13.141 32.235-29.163zM192.887 26.735l183.503 324.049h271.287l183.505-324.049h-638.294z" />
</font>
</defs>
</svg>
